BitTorrentTracker PerecTracker.org
BitTorrentTracker PerecTracker.org
    
Регистрация  ·  Вход
 
 · 
Забыли пароль?

  • Все о мужчинах / All Bout Men (Михаил Жерневский, Леонид Марголин) [2016, Комедия , Blu-Ray Remux 1080p] [DD5.1] [Лицензия]

    Ответить на тему
     
    Автор Сообщение

    Враг Нароода

    Создавать темы 17-Окт-2016 13:23

           

    [Цитировать]

    --Все о мужчинах / All Bout Men----Год выпуска: 2016
    Выпущено: Россия, , Enjoy Movies, Fresh Film
    Жанр: Комедия
    Продолжительность: 01:18:47
    Озвучка : -Русский-Лицензия ----Режиссер:
    Михаил Жерневский, Леонид Марголин--В ролях: Дмитрий Нагиев, Анна Хилькевич, Игорь Верник, Сергей Белоголовцев, Грант Тохатян, Владимир Епифанцев, Екатерина Скулкина, Елена Борщева, Виктор Степанян, Ян Цапник
    --Это история о том, какими разными могут быть мужчины. О том, что мужчины — это, в первую очередь, сложные решения и настоящие поступки. О том, в чем мужчины могут быть сильны, а в чем комичны. О том, за что их можно и нужно любить…----Качество :Blu-Ray Remux 1080p
    Формат: MKV
    Видео кодек: H264
    Видео: 27,3Мбит/сек,1920х1080(16.9),в 24.000кадр/сек,AVC(Baseline@L4,1)(1 Ref Frames)
    Аудио Кодек:AC3
    Аудио #1:AC3 , 640 Kbps, 48.0 KHz, 6 ch-Русский--

    MediaInfo

    Общее
    Уникальный идентификатор : 178423035590753437566727869799365119106 (0x863B06D5E4FA1627BC125EB5011C8C82)
    Полное имя : C:\МОЙ ДОСУГ\НАШЕ КИНО\ВСЁ О МУЖЧИНАХ\ALL_ABOUT_MEN_2016_DD5.1_N.B_Blu-Ray_Remux_1080p_Rus\ALL_ABOUT_MEN_2016_DD5.1_N.B_Blu-Ray_Remux_1080p_Rus.mkv
    Формат : Matroska
    Версия формата : Version 4 / Version 2
    Размер файла : 15,6 Гбайт
    Продолжительность : 1 ч. 19 м.
    Режим общего битрейта : Переменный
    Общий поток : 28,0 Мбит/сек
    Название фильма : ALL_ABOUT_MEN_2016_DD5.1_N.B_Blu-Ray_Remux_1080p_Rus
    Дата кодирования : UTC 2016-10-16 16:03:30
    Программа кодирования : mkvmerge v9.4.2 ('So High') 64bit
    Библиотека кодирования : libebml v1.3.4 + libmatroska v1.4.5
    Видео
    Идентификатор : 1
    Формат : AVC
    Формат/Информация : Advanced Video Codec
    Профиль формата : Baseline@L4.1
    Параметр CABAC формата : Нет
    Параметр ReFrames формата : 1 кадр
    Параметр GOP формата : M=1, N=12
    Идентификатор кодека : V_MPEG4/ISO/AVC
    Продолжительность : 1 ч. 19 м.
    Вид битрейта : Переменный
    Битрейт : 27,3 Мбит/сек
    Максимальный битрейт : 45,0 Мбит/сек
    Ширина : 1920 пикселей
    Высота : 1080 пикселей
    Соотношение сторон : 16:9
    Режим частоты кадров : Постоянный
    Частота кадров : 24,000 кадра/сек
    Цветовое пространство : YUV
    Субдискретизация насыщенности : 4:2:0
    Битовая глубина : 8 бит
    Тип развёртки : Прогрессивная
    Бит/(Пиксели*Кадры) : 0.549
    Размер потока : 15,2 Гбайт (98%)
    Заголовок : ALL_ABOUT_MEN_2016_DD5.1_N.B_Blu-Ray_Remux_1080p_Rus
    Язык : Russian
    Default : Нет
    Forced : Нет
    Аудио
    Идентификатор : 2
    Формат : AC-3
    Формат/Информация : Audio Coding 3
    Расширение режима : CM (complete main)
    Параметр Endianness формата : Big
    Идентификатор кодека : A_AC3
    Продолжительность : 1 ч. 19 м.
    Вид битрейта : Постоянный
    Битрейт : 640 Кбит/сек
    Каналы : 6 каналов
    Расположение каналов : Front: L C R, Side: L R, LFE
    Частота : 48,0 КГц
    Частота кадров : 31,250 кадров/сек (1536 spf)
    Метод сжатия : С потерями
    Размер потока : 365 Мбайт (2%)
    Заголовок : DUB @DD5.1 AC3, 640 Kbps, 48.0 KHz, 6 ch
    Язык : Russian
    Default : Нет
    Forced : Нет
    --

    Скриншоты

    --------Релиз от: Nikolai.Baranov & PIRATIYA --------
    Скачать .torrent

    Скачать торрент-файл бесплатно и на максимальной скорости!

    Как скачивать? · Что такое торрент? · Рейтинг и ограничения

    !ВНИМАНИЕ!
    Сайт не распространяет и не хранит электронные версии произведений, а занимается лишь лишь предоставлением доступа к создаваемому пользователями каталогу ссылок на торрент-файлы, которые содержат только списки хеш-сумм, убедительная просьба с жалобами обращаться напрямую к пользователю. Файлы для обмена на трекере предоставлены пользователями сайта, и администрация не несёт ответственности за их содержание. Просьба не заливать файлы, защищенные авторскими правами, а также файлы нелегального содержания!


    _________________

    Легко быть оптимистом, когда судьба не валит с ног тяжелыми ударами, а лишь иногда легонько шлепает по заднице.
    [Профиль] [ЛС]
    Показать сообщения:    
    Ответить на тему

    Текущее время: Сегодня, в 12:16

    Часовой пояс: GMT + 2



    Вы не можете начинать темы
    Вы не можете отвечать на сообщения
    Вы не можете редактировать свои сообщения
    Вы не можете удалять свои сообщения
    Вы не можете голосовать в опросах
    Вы не можете прикреплять файлы к сообщениям
    Вы не можете скачивать файлы