BitTorrentTracker PerecTracker.org
BitTorrentTracker PerecTracker.org
    
Регистрация  ·  Вход
 
 · 
Забыли пароль?

  • Исходный код / Source Code (Дункан Джонс / Duncan Jones) [2011, США, Канада, фантастика, боевик, триллер, HDRip] Dub

    Ответить на тему
     
    Автор Сообщение

    Light

    Создавать темы 17-Окт-2016 09:55

           

    [Цитировать]

    Исходный код / Source Code-Год выпуска: 2011
    Страна: США, Канада
    Жанр: фантастика, боевик, триллер
    Продолжительность: 01:33:13
    Перевод: Профессиональный (дублированный)
    Cубтитры: нет-Режиссер: Дункан Джонс / Duncan Jones-В ролях: Джейк Джилленхол, Мишель Монахэн, Вера Фармига, Джеффри Райт, Расселл Питерс, Джеймс А. Вудс, Майкл Арден, Кас Анвар, Джо Кобден, Брент Скэгфорд, Крэйг Томас, Гордон Мастен, Сьюзэн Бэйн, Паула Жан Хиксон, Линкольн Уорд, Кайл Гейтхаус, Альберт Кван, Энн Дэй-Джонс, Клариса Бирн, Мэтт Холлэнд, Фредерик Де Гранпре, Скотт Бакула, Лаура Этвуд, Райнальд Лапьер, Сэмюэл Медоуз.-Описание: Солдат по имени Коултер мистическим образом оказывается в теле неизвестного мужчины, погибшего в железнодорожной катастрофе. Коултер вынужден переживать чужую смерть снова и снова до тех пор, пока не поймет, кто — зачинщик катастрофы.-Автор рипа: Scarabey-Качество видео: HDRip
    Формат видео: AVI | Sample
    Видео: 624x352 (16:9), 23.976 fps, XviD build 50 ~981 kbps avg, 0.19 bit/pixel
    Аудио: 48 kHz, MPEG Layer 3, 2 ch, ~128.00 kbps avg | Дубляж НТВ+

    Инфо

    Формат : AVI
    Формат/Информация : Audio Video Interleave
    Размер файла : 746 Мбайт
    Продолжительность : 1 ч. 33 м.
    Общий поток : 1119 Кбит/сек
    Программа кодирования : VirtualDubMod 1.5.10.2 (build 2540/release)
    Библиотека кодирования : VirtualDubMod build 2540/release
    Видео
    Идентификатор : 0
    Формат : MPEG-4 Visual
    Профиль формата : Advanced Simple@L5
    Параметр BVOP формата : 1
    Параметр QPel формата : Нет
    Параметр GMC формата : Без точки перехода
    Параметр матрицы формата : Выборочная
    Идентификатор кодека : XVID
    Идентификатор кодека/Подсказка : XviD
    Продолжительность : 1 ч. 33 м.
    Битрейт : 981 Кбит/сек
    Ширина : 624 пикселя
    Высота : 352 пикселя
    Соотношение сторон : 16:9
    Частота кадров : 23,976 (23976/1000) кадра/сек
    Цветовое пространство : YUV
    Субдискретизация насыщенности : 4:2:0
    Битовая глубина : 8 бит
    Тип развёртки : Прогрессивная
    Метод сжатия : С потерями
    Бит/(Пиксели*Кадры) : 0.186
    Размер потока : 654 Мбайт (88%)
    Библиотека кодирования : XviD 1.2.1 (UTC 2008-12-04)
    Аудио
    Идентификатор : 1
    Формат : MPEG Audio
    Версия формата : Version 1
    Профиль формата : Layer 3
    Идентификатор кодека : 55
    Идентификатор кодека/Подсказка : MP3
    Продолжительность : 1 ч. 33 м.
    Вид битрейта : Постоянный
    Битрейт : 128 Кбит/сек
    Каналы : 2 канала
    Частота : 48,0 КГц
    Метод сжатия : С потерями
    Размер потока : 85,3 Мбайт (11%)
    Выравнивание : Соединение по промежуткам
    Продолжительность промежутка : 42 мс. (1,00 видеокадр)
    Время предзагрузки промежутка : 504 мс.
    Библиотека кодирования : LAME3.97
    Настройки программы : -m s -V 4 -q 2 -lowpass 17 -b 128

    Скриншоты

    Скачать .torrent

    Скачать торрент-файл бесплатно и на максимальной скорости!

    Как скачивать? · Что такое торрент? · Рейтинг и ограничения

    !ВНИМАНИЕ!
    Сайт не распространяет и не хранит электронные версии произведений, а занимается лишь лишь предоставлением доступа к создаваемому пользователями каталогу ссылок на торрент-файлы, которые содержат только списки хеш-сумм, убедительная просьба с жалобами обращаться напрямую к пользователю. Файлы для обмена на трекере предоставлены пользователями сайта, и администрация не несёт ответственности за их содержание. Просьба не заливать файлы, защищенные авторскими правами, а также файлы нелегального содержания!


    _________________
    [Профиль] [ЛС]
    Показать сообщения:    
    Ответить на тему

    Текущее время: Сегодня, в 21:57

    Часовой пояс: GMT + 2



    Вы не можете начинать темы
    Вы не можете отвечать на сообщения
    Вы не можете редактировать свои сообщения
    Вы не можете удалять свои сообщения
    Вы не можете голосовать в опросах
    Вы не можете прикреплять файлы к сообщениям
    Вы не можете скачивать файлы