BitTorrentTracker PerecTracker.org
BitTorrentTracker PerecTracker.org
    
Регистрация  ·  Вход
 
 · 
Забыли пароль?

  • [ATV3] Училка (Алексей Петрухин) [2015, Россия, Драма, боевик, криминал, WEB-DL, HD (1080p)] Original

    Ответить на тему
     
    Автор Сообщение

    rechyn

    Создавать темы 17-Окт-2016 05:45

           

    [Цитировать]

    Училка
    «Она приняла решение…»
    6.118 / 10 6.90 / 10
    -Год выпуска: 2015
    Страна: Россия
    Жанр: Драма, боевик, криминал
    Продолжительность: 02:06:55
    Перевод: Не требуется
    Оригинальная аудиодорожка: Есть
    Cубтитры: Нет
    Режиссёр: Алексей Петрухин
    Сценарий: Екатерина Асмус, Алексей Петрухин
    Продюсер: Петр Черенков, Олег Степченко, Алексей Петрухин
    Оператор: Илья Кондратьев
    Композитор: Александр Бакхаус
    Художник: Алла Савина
    В ролях: Ирина Купченко, Анна Чурина, Роза Хайруллина, Андрей Мерзликин, Алиса Гребенщикова, Ольга Егорова, Анастасия Пономарева, Дарья Дубникова, Акмал Аблаев, Алексей Лукин
    Бюджет: 23 000 000 руб.
    Сборы в России: $229 592
    Мировая премьера: 13 ноября 2015
    Премьера (РФ): 26 ноября 2015, «Каропрокат»
    Описание: Внезапную тишину школьных коридоров оглашает выстрел. Доведенная до крайности учительница истории берет в заложники целый класс. Но вскоре ситуация в корне меняется и заложницей становится она сама…-Качество исходника: WEB-DL 1080p (HDCLub)
    Качество: WEB-DL
    Тип: HD (1080p)
    Контейнер: M4V
    Видео: H.264, 1920x1080, 16:9, 5 191 Kbps, 25.000 fps
    Аудио 1: Русский/Оригинальная дорожка , AAC / 2.0 / 160 Kbps / 48.0 KHz
    Аудио 2: Русский/Оригинальная дорожка , AC-3 / 5.1 / 384 Kbps / 48.0 KHz
    -

    iTunes Meta Tags

    Sort Name: Училка
    XID: Apple:vendor_id:2015-842033
    contentID: 1160914834
    Copyright: © 2016 Новый Диск
    Screenwriters: Екатерина Асмус, Алексей Петрухин
    Producers: Петр Черенков, Олег Степченко, Алексей Петрухин
    Director: Алексей Петрухин
    Cast: Ирина Купченко, Анна Чурина, Роза Хайруллина, Андрей Мерзликин, Алиса Гребенщикова, Ольга Егорова, Анастасия Пономарева, Дарья Дубникова, Акмал Аблаев, Алексей Лукин
    Studio: Русская Фильм Группа, Startfilm Group
    Rating: 134
    Long Description: Внезапную тишину школьных коридоров оглашает выстрел. Доведенная до крайности учительница истории берет в заложники целый класс. Но вскоре ситуация в корне меняется и заложницей становится она сама...
    Description: Внезапную тишину школьных коридоров оглашает выстрел. Доведенная до крайности учительница истории берет в заложники целый класс. Но вскоре ситуация в корне меняется и заложницей становится она сама...
    Release Date: 2015-11-13T08:00:00Z
    Genre: Русское кино
    Artist: Алексей Петрухин
    Name: Училка

    MediaInfo

    General
    Complete name : /Users/imac/HandBrake/Uchilka.WEB-DL.1080p.m4v
    Format : MPEG-4
    Codec ID : M4V
    File size : 5.09 GiB
    Duration : 2h 6mn
    Overall bit rate mode : Variable
    Overall bit rate : 5 739 Kbps
    Movie name : Училка
    Performer : Алексей Петрухин
    Director : Алексей Петрухин
    Actor : Ирина Купченко / Анна Чурина / Роза Хайруллина / Андрей Мерзликин / Алиса Гребенщикова / Ольга Егорова / Анастасия Пономарева / Дарья Дубникова / Акмал Аблаев / Алексей Лукин
    Screenplay by : Екатерина Асмус / Алексей Петрухин
    Producer : Петр Черенков / Олег Степченко / Алексей Петрухин
    Production studio : Русская Фильм Группа, Startfilm Group
    Genre : Русское кино
    ContentType : Short Film
    Description : Внезапную тишину школьных коридоров оглашает выстрел. Доведенная до крайности учительница истории берет в заложники целый класс. Но вскоре ситуация в корне меняется и заложницей становится она сама...
    Recorded date : UTC 2015-11-13 08:00:00
    Encoded date : UTC 2016-10-16 20:59:38
    Tagged date : UTC 2016-10-16 21:00:43
    Copyright : © 2016 Новый Диск
    Cover : Yes
    Rating : None
    Title/Sort : Училка
    LongDescription : Внезапную тишину школьных коридоров оглашает выстрел. Доведенная до крайности учительница истории берет в заложники целый класс. Но вскоре ситуация в корне меняется и заложницей становится она сама...
    AppleStoreCatalogID : 1160914834
    Vendor : Apple:vendor_id:2015-842033
    ContentRating : ru-movie|12+|200|
    Video #1
    ID : 1
    Format : AVC
    Format/Info : Advanced Video Codec
    Format profile : High@L4
    Format settings, CABAC : Yes
    Format settings, ReFrames : 4 frames
    Codec ID : avc1
    Codec ID/Info : Advanced Video Coding
    Duration : 2h 6mn
    Bit rate : 5 191 Kbps
    Width : 1 920 pixels
    Height : 1 080 pixels
    Display aspect ratio : 16:9
    Frame rate mode : Constant
    Frame rate : 25.000 fps
    Color space : YUV
    Chroma subsampling : 4:2:0
    Bit depth : 8 bits
    Scan type : Progressive
    Bits/(Pixel*Frame) : 0.100
    Stream size : 4.60 GiB (90%)
    Title : Main Program
    Language : Russian
    Encoded date : UTC 2016-10-16 20:59:38
    Tagged date : UTC 2016-10-16 20:59:46
    Color range : Limited
    Color primaries : BT.709
    Transfer characteristics : BT.709
    Matrix coefficients : BT.709
    Video #2
    ID : 5
    Format : JPEG
    Codec ID : jpeg
    Duration : 2h 6mn
    Bit rate mode : Variable
    Bit rate : 1 087 bps
    Width : 640 pixels
    Height : 360 pixels
    Display aspect ratio : 16:9
    Frame rate mode : Variable
    Frame rate : 0.003 fps
    Minimum frame rate : 0.001 fps
    Maximum frame rate : 0.003 fps
    Color space : YUV
    Chroma subsampling : 4:2:0
    Bit depth : 8 bits
    Compression mode : Lossy
    Bits/(Pixel*Frame) : 1.573
    Stream size : 885 KiB (0%)
    Title : Chapter Images
    Language : Russian
    Encoded date : UTC 2016-10-16 20:59:55
    Tagged date : UTC 2016-10-16 20:59:56
    Audio #1
    ID : 2
    Format : AAC
    Format/Info : Advanced Audio Codec
    Format profile : LC
    Codec ID : 40
    Duration : 2h 6mn
    Bit rate mode : Variable
    Bit rate : 157 Kbps
    Maximum bit rate : 234 Kbps
    Channel(s) : 2 channels
    Channel positions : Front: L R
    Sampling rate : 48.0 KHz
    Compression mode : Lossy
    Stream size : 143 MiB (3%)
    Title : Russian Stereo
    Language : Russian
    Encoded date : UTC 2016-10-16 20:59:38
    Tagged date : UTC 2016-10-16 20:59:47
    Audio #2
    ID : 3
    Format : AC-3
    Format/Info : Audio Coding 3
    Mode extension : CM (complete main)
    Format settings, Endianness : Big
    Codec ID : ac-3
    Duration : 2h 6mn
    Bit rate mode : Constant
    Bit rate : 384 Kbps
    Channel(s) : 6 channels
    Channel positions : Front: L C R, Side: L R, LFE
    Sampling rate : 48.0 KHz
    Bit depth : 16 bits
    Compression mode : Lossy
    Stream size : 349 MiB (7%)
    Title : Russian DD 5.1
    Language : Russian
    Encoded date : UTC 2016-10-16 20:59:38
    Tagged date : UTC 2016-10-16 20:59:46
    Menu #1
    00:00:00.000 : 1
    00:07:15.680 : 2
    00:13:00.640 : 3
    00:19:46.320 : 4
    00:24:54.640 : 5
    00:30:48.280 : 6
    00:36:34.520 : 7
    00:42:33.600 : 8
    00:48:05.040 : 9
    00:55:19.480 : 10
    01:01:14.640 : 11
    01:06:20.600 : 12
    01:12:58.000 : 13
    01:18:39.480 : 14
    01:24:39.720 : 15
    01:32:15.640 : 16
    01:38:31.800 : 17
    01:44:38.640 : 18
    01:49:54.080 : 19
    01:55:23.600 : 20
    Menu #2
    ID : 4
    Codec ID : text
    Duration : 2h 6mn
    Language : Russian
    Encoded date : UTC 2016-10-16 20:59:48
    Tagged date : UTC 2016-10-16 20:59:48
    00:00:00.000 : 1
    00:07:15.680 : 2
    00:13:00.640 : 3
    00:19:46.320 : 4
    00:24:54.640 : 5
    00:30:48.280 : 6
    00:36:34.520 : 7
    00:42:33.600 : 8
    00:48:05.040 : 9
    00:55:19.480 : 10
    01:01:14.640 : 11
    01:06:20.600 : 12
    01:12:58.000 : 13
    01:18:39.480 : 14
    01:24:39.720 : 15
    01:32:15.640 : 16
    01:38:31.800 : 17
    01:44:38.640 : 18
    01:49:54.080 : 19
    01:55:23.600 : 20
    Bit rate mode : VBR

    Скриншоты

    -

    Релиз подготовлен для просмотра на Apple TV, iPad, iPhone, iPod Touch.
    Для просмотра данного релиза на компьютере с ОС Windows рекомендуется использовать VLC media player
    Скачать .torrent

    Скачать торрент-файл бесплатно и на максимальной скорости!

    Как скачивать? · Что такое торрент? · Рейтинг и ограничения

    !ВНИМАНИЕ!
    Сайт не распространяет и не хранит электронные версии произведений, а занимается лишь лишь предоставлением доступа к создаваемому пользователями каталогу ссылок на торрент-файлы, которые содержат только списки хеш-сумм, убедительная просьба с жалобами обращаться напрямую к пользователю. Файлы для обмена на трекере предоставлены пользователями сайта, и администрация не несёт ответственности за их содержание. Просьба не заливать файлы, защищенные авторскими правами, а также файлы нелегального содержания!


    _________________
    [Профиль] [ЛС]
    Показать сообщения:    
    Ответить на тему

    Текущее время: Сегодня, в 01:15

    Часовой пояс: GMT + 2



    Вы не можете начинать темы
    Вы не можете отвечать на сообщения
    Вы не можете редактировать свои сообщения
    Вы не можете удалять свои сообщения
    Вы не можете голосовать в опросах
    Вы не можете прикреплять файлы к сообщениям
    Вы не можете скачивать файлы