Register  ·  Log in
Forgot password?

  • Маэстро / Серии: 1-12 из 12 (Эдуард Парри) [2016, Мелодрама, драма, SATRip]

    Reply to topic
    Author Message


    Post 16-Oct-2016 22:20



    -Год выпуска: 2016
    Производство: Украина, Кинокомпания "StarMedia"
    Жанр: Мелодрама, драма
    Продолжительность: 00:51:00
    Субтитры: Нет-Режиссёр: Эдуард Парри-В ролях: Леонид Тележинский, Николай Шатохин, Анна Воркуева, Антонина Дивина, Станислав Боклан, Андрей Назимов, Татьяна Жекова, Александр Мельник (II), Максим Любачевский, Дмитрий Воздвиженский, Артемий Егоров, Дмитрий Сарансков, Сергей Деньга-Описание: 1986 год. После восьмимесячного плавания на торговом судне в качестве моториста, в Одессу возвращается Паша. Это — молодой симпатичный парень, отправившийся в дальние странствия ради любимой девушки Лили. Ему, во что бы то ни стало, нужно было заработать деньги на кооперативную квартиру — таким было условие Лилиного отца, человека небедного и известного всей Одессе. Иначе о женитьбе Лили и Паши не могло быть и речи…-Релиз-группа: - / -Все раздачи сериала / Сэмпл-Качество: SATRip
    Формат: AVI
    Видео кодек: XviD
    Аудио кодек: AC3
    Видео: 704x368 (1.913), 25.000 fps, XviD build 73, 1463 Kbps, 0.22 Bits/Pixel
    Аудио: 48 kHz, AC3 Dolby Digital, 2 ch, 192 Kbps


    Complete name : Downloads\Maestro.2016.SATRip.Files-x
    Format : AVI
    Format/Info : Audio Video Interleave
    File size : 600 MiB
    Duration : 50mn 26s
    Overall bit rate : 1 664 Kbps
    Writing application : VirtualDubMod | || (build 2550/release)
    Writing library : VirtualDubMod build 2550/release
    Video #0
    ID : 0
    Format : MPEG-4 Visual
    Format profile : Advanced Simple@L5
    Format settings, BVOP : 1
    Format settings, QPel : No
    Format settings, GMC : No warppoints
    Format settings, Matrix : Custom
    Codec ID : XVID
    Codec ID/Hint : XviD
    Duration : 50mn 26s
    Bit rate : 1 463 Kbps
    Width : 704 pixels
    Height : 368 pixels
    Display aspect ratio : 1.913
    Frame rate : 25.000 fps
    Color space : YUV
    Chroma subsampling : 4:2:0
    Bit depth : 8 bits
    Scan type : Progressive
    Compression mode : Lossy
    Bits/(Pixel*Frame) : 0.226
    Stream size : 528 MiB (88%)
    Writing library : XviD 73
    Audio #1
    ID : 1
    Format : AC-3
    Format/Info : Audio Coding 3
    Mode extension : CM (complete main)
    Format settings, Endianness : Big
    Codec ID : 2000
    Duration : 50mn 26s
    Bit rate mode : Constant
    Bit rate : 192 Kbps
    Channel(s) : 2 channels
    Channel positions : Front: L R
    Sampling rate : 48.0 KHz
    Bit depth : 16 bits
    Compression mode : Lossy
    Stream size : 69.3 MiB (12%)
    Alignment : Split accross interleaves
    Interleave, duration : 40 ms (1.00 video frame)
    Interleave, preload duration : 500 ms


    Download .torrent

    Download free and at maximum speed!

    How to Download? · What is a torrent? · Ratings and Limitations

    The site does not extend and does not store electronic(digital) versions of products, and only gives access to a reference catalogue created by users on torrent-files which contain only lists of the hash-sums, the earnest entreaty, with complaints(abuse) to access directly to the user. Files for an exchange on tracker are given by users of a site, and the administration does not bear the responsibility for their maintenance. The request to not fill in the files protected by copyrights, and also files of the illegal maintenance!

    [Profile] [PM]
    Display posts from previous:    
    Reply to topic

    The time now is: Today 15:57

    All times are GMT + 3 Hours

    You cannot post new topics in this forum
    You cannot reply to topics in this forum
    You cannot edit your posts in this forum
    You cannot delete your posts in this forum
    You cannot vote in polls in this forum
    You cannot attach files in this forum
    You cannot download files in this forum