BitTorrentTracker PerecTracker.org
BitTorrentTracker PerecTracker.org
    
Регистрация  ·  Вход
 
 · 
Забыли пароль?

  • Маэстро / Серии: 1-12 из 12 (Эдуард Парри) [2016, Мелодрама, драма, SATRip]

    Ответить на тему
     
    Автор Сообщение

    rechyn

    Создавать темы 16-Окт-2016 21:20

           

    [Цитировать]

    Маэстро
    -Год выпуска: 2016
    Производство: Украина, Кинокомпания "StarMedia"
    Жанр: Мелодрама, драма
    Продолжительность: 00:51:00
    Субтитры: Нет-Режиссёр: Эдуард Парри-В ролях: Леонид Тележинский, Николай Шатохин, Анна Воркуева, Антонина Дивина, Станислав Боклан, Андрей Назимов, Татьяна Жекова, Александр Мельник (II), Максим Любачевский, Дмитрий Воздвиженский, Артемий Егоров, Дмитрий Сарансков, Сергей Деньга-Описание: 1986 год. После восьмимесячного плавания на торговом судне в качестве моториста, в Одессу возвращается Паша. Это — молодой симпатичный парень, отправившийся в дальние странствия ради любимой девушки Лили. Ему, во что бы то ни стало, нужно было заработать деньги на кооперативную квартиру — таким было условие Лилиного отца, человека небедного и известного всей Одессе. Иначе о женитьбе Лили и Паши не могло быть и речи…-Релиз-группа: - / -Все раздачи сериала / Сэмпл-Качество: SATRip
    Формат: AVI
    Видео кодек: XviD
    Аудио кодек: AC3
    Видео: 704x368 (1.913), 25.000 fps, XviD build 73, 1463 Kbps, 0.22 Bits/Pixel
    Аудио: 48 kHz, AC3 Dolby Digital, 2 ch, 192 Kbps

    MI

    General
    Complete name : Downloads\Maestro.2016.SATRip.Files-x
    Format : AVI
    Format/Info : Audio Video Interleave
    File size : 600 MiB
    Duration : 50mn 26s
    Overall bit rate : 1 664 Kbps
    Writing application : VirtualDubMod 1.5.10.3 | www.virtualdub-fr.org || (build 2550/release)
    Writing library : VirtualDubMod build 2550/release
    Video #0
    ID : 0
    Format : MPEG-4 Visual
    Format profile : Advanced Simple@L5
    Format settings, BVOP : 1
    Format settings, QPel : No
    Format settings, GMC : No warppoints
    Format settings, Matrix : Custom
    Codec ID : XVID
    Codec ID/Hint : XviD
    Duration : 50mn 26s
    Bit rate : 1 463 Kbps
    Width : 704 pixels
    Height : 368 pixels
    Display aspect ratio : 1.913
    Frame rate : 25.000 fps
    Color space : YUV
    Chroma subsampling : 4:2:0
    Bit depth : 8 bits
    Scan type : Progressive
    Compression mode : Lossy
    Bits/(Pixel*Frame) : 0.226
    Stream size : 528 MiB (88%)
    Writing library : XviD 73
    Audio #1
    ID : 1
    Format : AC-3
    Format/Info : Audio Coding 3
    Mode extension : CM (complete main)
    Format settings, Endianness : Big
    Codec ID : 2000
    Duration : 50mn 26s
    Bit rate mode : Constant
    Bit rate : 192 Kbps
    Channel(s) : 2 channels
    Channel positions : Front: L R
    Sampling rate : 48.0 KHz
    Bit depth : 16 bits
    Compression mode : Lossy
    Stream size : 69.3 MiB (12%)
    Alignment : Split accross interleaves
    Interleave, duration : 40 ms (1.00 video frame)
    Interleave, preload duration : 500 ms

    Скриншоты

    Скачать .torrent

    Скачать торрент-файл бесплатно и на максимальной скорости!

    Как скачивать? · Что такое торрент? · Рейтинг и ограничения

    !ВНИМАНИЕ!
    Сайт не распространяет и не хранит электронные версии произведений, а занимается лишь лишь предоставлением доступа к создаваемому пользователями каталогу ссылок на торрент-файлы, которые содержат только списки хеш-сумм, убедительная просьба с жалобами обращаться напрямую к пользователю. Файлы для обмена на трекере предоставлены пользователями сайта, и администрация не несёт ответственности за их содержание. Просьба не заливать файлы, защищенные авторскими правами, а также файлы нелегального содержания!


    _________________
    [Профиль] [ЛС]
    Показать сообщения:    
    Ответить на тему

    Текущее время: Сегодня, в 04:03

    Часовой пояс: GMT + 2



    Вы не можете начинать темы
    Вы не можете отвечать на сообщения
    Вы не можете редактировать свои сообщения
    Вы не можете удалять свои сообщения
    Вы не можете голосовать в опросах
    Вы не можете прикреплять файлы к сообщениям
    Вы не можете скачивать файлы