BitTorrentTracker PerecTracker.org
BitTorrentTracker PerecTracker.org
    
Регистрация  ·  Вход
 
 · 
Забыли пароль?

  • Маэстро / Серии: 1-12 из 12 (Эдуард Парри) [2016,приключения, драма, SATRip-AVC]

    Ответить на тему
     
    Автор Сообщение

    rechyn

    Создавать темы 16-Окт-2016 21:18

           

    [Цитировать]

    Маэстро--
    Год выпуска: 2016
    Производство: Россия,Украина "StarMedia"
    Жанр: приключения, драма
    Продолжительность: 00:50:00
    Субтитры: нет
    --
    Режиссёр: Эдуард Парри
    --
    В ролях: Леонид Тележинский, Николай Шатохин, Анна Воркуева, Антонина Дивина, Станислав Боклан, Андрей Назимов, Дмитрий Воздвиженский, Федор Лавров, Олег Кассин
    Описание: 1986 год. После восьмимесячного плавания на торговом судне в качестве моториста, в Одессу возвращается Паша. Это – молодой симпатичный парень, отправившийся в дальние странствия ради любимой девушки Лили. Ему, во что бы то ни стало, нужно было заработать деньги на кооперативную квартиру – таким было условие Лилиного отца, человека не бедного и известного всей Одессе. Иначе о женитьбе Лили и Паши не могло быть и речи…
    --
    Все раздачи сериала

    --
    Релиз от:
    --
    Качество: SATRip
    Формат: MKV
    Видео кодек: H.264
    Аудио кодек: AC3
    Видео: MPEG4 Video (H264), 704x368, 25fps,1700 Kbps,bit/pixel 0.262
    Аудио: AC3 48000Hz, stereo, 192kbps,2 ch
    --

    MI

    Общее
    Уникальный идентификатор : 234414330787395353216750165863332249739 (0xB05A8ED2E855BE129FB7A1F5288B008B)
    Полное имя : H:\Сериалы\Маэстро серия_Маэстро_rip by_Aleksan55.mkv
    Формат : Matroska
    Версия формата : Version 2
    Размер файла : 683 Мбайт
    Продолжительность : 50 м.
    Общий поток : 1894 Кбит/сек
    Дата кодирования : UTC 2016-10-11 03:15:54
    Программа кодирования : mkvmerge v7.8.0 ('River Man') 32bit built on Apr 3 2015 12:11:22
    Библиотека кодирования : libebml v1.3.1 + libmatroska v1.4.2
    Видео
    Идентификатор : 1
    Формат : AVC
    Формат/Информация : Advanced Video Codec
    Профиль формата : High@L4.1
    Параметр CABAC формата : Да
    Параметр ReFrames формата : 12 кадров
    Идентификатор кодека : V_MPEG4/ISO/AVC
    Продолжительность : 50 м.
    Битрейт : 1700 Кбит/сек
    Ширина : 704 пикселя
    Высота : 368 пикселей
    Соотношение сторон : 1,913
    Режим частоты кадров : Постоянный
    Частота кадров : 25,000 кадров/сек
    Цветовое пространство : YUV
    Субдискретизация насыщенности : 4:2:0
    Битовая глубина : 8 бит
    Тип развёртки : Прогрессивная
    Бит/(Пиксели*Кадры) : 0.262
    Размер потока : 600 Мбайт (88%)
    Библиотека кодирования : x264 core 148 r2638 7599210
    Настройки программы : cabac=1 / ref=12 / deblock=1:0:0 / analyse=0x3:0x133 / me=umh / subme=10 / psy=1 / psy_rd=1.00:0.15 / mixed_ref=0 / me_range=32 / chroma_me=0 / trellis=2 / 8x8dct=1 / cqm=0 / deadzone=21,11 / fast_pskip=0 / chroma_qp_offset=-3 / threads=6 / lookahead_threads=1 / sliced_threads=0 / nr=0 / decimate=1 / interlaced=0 / bluray_compat=0 / constrained_intra=0 / bframes=12 / b_pyramid=2 / b_adapt=1 / b_bias=0 / direct=3 / weightb=1 / open_gop=0 / weightp=2 / keyint=250 / keyint_min=25 / scenecut=40 / intra_refresh=0 / rc_lookahead=40 / rc=2pass / mbtree=1 / bitrate=1700 / ratetol=1.0 / qcomp=0.80 / qpmin=0 / qpmax=40 / qpstep=4 / cplxblur=20.0 / qblur=0.5 / ip_ratio=1.40 / aq=1:1.20
    Default : Да
    Forced : Нет
    Цветовой диапазон : Limited
    Основные цвета : BT.601 PAL
    Характеристики трансфера : BT.470 System B, BT.470 System G
    Коэффициенты матрицы : BT.601
    Аудио
    Идентификатор : 2
    Формат : AC-3
    Формат/Информация : Audio Coding 3
    Расширение режима : CM (complete main)
    Параметр Endianness формата : Big
    Идентификатор кодека : A_AC3
    Продолжительность : 50 м.
    Вид битрейта : Постоянный
    Битрейт : 192 Кбит/сек
    Каналы : 2 канала
    Расположение каналов : Front: L R
    Частота : 48,0 КГц
    Метод сжатия : С потерями
    Размер потока : 69,3 Мбайт (10%)
    Default : Да
    Forced : Нет

    Скриншоты

    --Рекламы нет.
    Скачать .torrent

    Скачать торрент-файл бесплатно и на максимальной скорости!

    Как скачивать? · Что такое торрент? · Рейтинг и ограничения

    !ВНИМАНИЕ!
    Сайт не распространяет и не хранит электронные версии произведений, а занимается лишь лишь предоставлением доступа к создаваемому пользователями каталогу ссылок на торрент-файлы, которые содержат только списки хеш-сумм, убедительная просьба с жалобами обращаться напрямую к пользователю. Файлы для обмена на трекере предоставлены пользователями сайта, и администрация не несёт ответственности за их содержание. Просьба не заливать файлы, защищенные авторскими правами, а также файлы нелегального содержания!


    _________________
    [Профиль] [ЛС]
    Показать сообщения:    
    Ответить на тему

    Текущее время: Сегодня, в 20:55

    Часовой пояс: GMT + 2



    Вы не можете начинать темы
    Вы не можете отвечать на сообщения
    Вы не можете редактировать свои сообщения
    Вы не можете удалять свои сообщения
    Вы не можете голосовать в опросах
    Вы не можете прикреплять файлы к сообщениям
    Вы не можете скачивать файлы