BitTorrentTracker PerecTracker.org
BitTorrentTracker PerecTracker.org
    
Регистрация  ·  Вход
 
 · 
Забыли пароль?

  • Челночницы / Серии: 1-16 из 16 (Юлия Краснова) [2016, детектив, экранизация, HDTVRip]

    Ответить на тему
     
    Автор Сообщение

    rechyn

    Создавать темы 16-Окт-2016 21:14

           

    [Цитировать]

    ЧелночницыГод выпуска: 2016
    Производство: Россия, Кинокомпания "Русское"
    Жанр: Драма
    Продолжительность: 00:45:00
    Субтитры: нет-Режиссёр: Юлия Краснова-В ролях:
    Мария Порошина, Елена Панова, Ирина Розанова, Светлана Иванова, Зоряна Марченко, Владимир Епифанцев, Юрий Цурило, Илья Соколовский, Вадим Колганов, Константин Юшкевич, Макар Запорожский, Екатерина Травова, Владимир Юматов, Татьяна Агафонова, Артём Фадеев, Валентина Ляпина, Людмила Гнилова, Павел Савинков, Сослан Фидаров, Валерий Шальных, Олег Макаров, Валентина Панина, Виктория Таранец, Александр Чернявский (II), Вера Смолина, Сергей Комаров (II), Елизавета Водолазская, Сергей Цепов, Евгений Пилюгин, Любовь Фирсова, Андрей Лукьянов, Натали Старынкевич, Михаил Богдасаров, Наташа Швец (II), Дмитрий Ячевский, Сергей Краснов, Артур Ваха, Елена Козак-Описание: Девяностые, годы всеобщей растерянности и непонимания, стали их временем. Временем челночниц. Продавали, меняли, везли в страну то, чего здесь не было. А не было ничего. И все уходило сразу, слету – детские ползунки и мужские спортивные костюмы, колготки, махровые свитера. Да мало ли что прошло через их руки, оттянутые тяжелыми тюками и сумками..-Релиз группа
    Все раздачи сериала
    Сэмпл-Качество: HDTVRip
    Формат: AVI
    Видео кодек: XviD
    Аудио кодек: AC3
    Видео: 720x400 (1.80:1), 25 fps, XviD build 73 ~1448 kbps avg, 0.22 bit/pixel
    Аудио: 48 kHz, AC3 Dolby Digital, 2/0 (L,R) ch, ~192.00 kbps avg

    MI

    General
    Complete name : X:\раздачи\Челночницы.2016.HDTVRip.RG.Russkie.serialy.&.Files-x.Челночницы.2016.HDTVRip.RG.Russkie.serialy.&.Files-x.avi
    Format : AVI
    Format/Info : Audio Video Interleave
    File size : 649 MiB
    Duration : 50mn 31s
    Overall bit rate : 1 795 Kbps
    Writing application : VirtualDubMod 1.5.10.3 | www.virtualdub-fr.org || (build 2550/release)
    Writing library : VirtualDubMod build 2550/release
    Video
    ID : 0
    Format : MPEG-4 Visual
    Format profile : Advanced Simple@L5
    Format settings, BVOP : 1
    Format settings, QPel : No
    Format settings, GMC : No warppoints
    Format settings, Matrix : Custom
    Codec ID : XVID
    Codec ID/Hint : XviD
    Duration : 50mn 31s
    Bit rate : 1 593 Kbps
    Width : 720 pixels
    Height : 400 pixels
    Display aspect ratio : 16:9
    Frame rate : 25.000 fps
    Color space : YUV
    Chroma subsampling : 4:2:0
    Bit depth : 8 bits
    Scan type : Progressive
    Compression mode : Lossy
    Bits/(Pixel*Frame) : 0.221
    Stream size : 576 MiB (89%)
    Writing library : XviD 73
    Audio
    ID : 1
    Format : AC-3
    Format/Info : Audio Coding 3
    Mode extension : CM (complete main)
    Format settings, Endianness : Big
    Codec ID : 2000
    Duration : 50mn 31s
    Bit rate mode : Constant
    Bit rate : 192 Kbps
    Channel(s) : 2 channels
    Channel positions : Front: L R
    Sampling rate : 48.0 KHz
    Frame rate : 31.250 fps (1536 spf)
    Compression mode : Lossy
    Stream size : 69.4 MiB (11%)
    Alignment : Split accross interleaves
    Interleave, duration : 40 ms (1.00 video frame)
    Interleave, preload duration : 500 ms

    Скриншоты

    Скачать .torrent

    Скачать торрент-файл бесплатно и на максимальной скорости!

    Как скачивать? · Что такое торрент? · Рейтинг и ограничения

    !ВНИМАНИЕ!
    Сайт не распространяет и не хранит электронные версии произведений, а занимается лишь лишь предоставлением доступа к создаваемому пользователями каталогу ссылок на торрент-файлы, которые содержат только списки хеш-сумм, убедительная просьба с жалобами обращаться напрямую к пользователю. Файлы для обмена на трекере предоставлены пользователями сайта, и администрация не несёт ответственности за их содержание. Просьба не заливать файлы, защищенные авторскими правами, а также файлы нелегального содержания!


    _________________
    [Профиль] [ЛС]
    Показать сообщения:    
    Ответить на тему

    Текущее время: Сегодня, в 00:28

    Часовой пояс: GMT + 2



    Вы не можете начинать темы
    Вы не можете отвечать на сообщения
    Вы не можете редактировать свои сообщения
    Вы не можете удалять свои сообщения
    Вы не можете голосовать в опросах
    Вы не можете прикреплять файлы к сообщениям
    Вы не можете скачивать файлы