BitTorrentTracker PerecTracker.org
BitTorrentTracker PerecTracker.org
    
Регистрация  ·  Вход
 
 · 
Забыли пароль?

  • Расплата за счастье / Серии: 1-4 из 4 (Екатерина Двигубская) [2016, Мелодрама, HDTVRip]

    Ответить на тему
     
    Автор Сообщение

    rechyn

    Создавать темы 16-Окт-2016 21:04

           

    [Цитировать]

    Расплата за счастье-Год выпуска: 2016
    Производство: Россия, Паламеда Продакшн, Продюсерский центр Фабула
    Жанр: Мелодрама
    Продолжительность: 01:30:00
    Субтитры: Heт
    Режиссёр: Екатерина Двигубская
    В ролях: Дарья Повереннова, Святослав Астрамович, Дмитрий Егоров, Евгения Осипова, Марта Голубева, Юлианна Михневич, Александр Ефремов (II), Светлана Аникей, Александр Ткачёнок, Дмитрий Малащицкий, Руслан Чернецкий, Олег Ткачёв
    Описание: Елена Ковалёва живет вполне счастливой жизнью. У нее любимый и любящий муж Илья и прекрасный сын Дмитрий. Семья живет в загородном доме и имеет свой небольшой бизнес.
    Но однажды Елена случайно сбивает на своей машине молодую девушку Настю. Серьезных повреждений у нее нет, но Елена, пытаясь загладить свою вину, приглашает девушку несколько дней пожить в их доме.
    С появлением Насти атмосфера в доме и семье начинает постепенно меняться. В какой-то момент Елена замечает, что ее семья уже на гране краха…
    Чем же провинились Ковалевы перед «честной, доброй и беззащитной» Настей, которую, как они думали, видят впервые в жизни?-Релиз группа: -Все раздачи сериала / Сэмпл-Качество: HDTVRip
    Формат: AVI
    Видео кодек: XviD
    Аудио кодек: AC3
    Видео: 720x400 (16:9), 25.000 fps, XviD build 73, 2005 Kbps, 0.27 Bits/Pixel
    Аудио: 48 kHz, AC3 Dolby Digital, 2 ch, 192 Kbps

    MI

    General
    Complete name : \Downloads\Расплата за счастье.2016.HDTVRip.RG.Russkie.serialy.&.Files-x
    Format : AVI
    Format/Info : Audio Video Interleave
    File size : 52.0 MiB
    Duration : 3mn 13s
    Overall bit rate : 2 260 Kbps
    Writing application : VirtualDubMod 1.5.10.3 (build 2550/release)
    Writing library : VirtualDubMod build 2550/release
    Video #0
    ID : 0
    Format : MPEG-4 Visual
    Format profile : Advanced Simple@L5
    Format settings, BVOP : 1
    Format settings, QPel : No
    Format settings, GMC : No warppoints
    Format settings, Matrix : Custom
    Codec ID : XVID
    Codec ID/Hint : XviD
    Duration : 3mn 13s
    Bit rate : 2 057 Kbps
    Width : 720 pixels
    Height : 400 pixels
    Display aspect ratio : 16:9
    Frame rate : 25.000 fps
    Color space : YUV
    Chroma subsampling : 4:2:0
    Bit depth : 8 bits
    Scan type : Progressive
    Compression mode : Lossy
    Bits/(Pixel*Frame) : 0.286
    Stream size : 47.3 MiB (91%)
    Writing library : XviD 73
    Audio #1
    ID : 1
    Format : AC-3
    Format/Info : Audio Coding 3
    Mode extension : CM (complete main)
    Format settings, Endianness : Big
    Codec ID : 2000
    Duration : 3mn 13s
    Bit rate mode : Constant
    Bit rate : 192 Kbps
    Channel(s) : 2 channels
    Channel positions : Front: L R
    Sampling rate : 48.0 KHz
    Bit depth : 16 bits
    Compression mode : Lossy
    Delay relative to video : 8ms
    Stream size : 4.42 MiB (8%)
    Alignment : Split accross interleaves
    Interleave, duration : 40 ms (1.00 video frame)
    Interleave, preload duration : 500 ms

    Скриншоты

    Скачать .torrent

    Скачать торрент-файл бесплатно и на максимальной скорости!

    Как скачивать? · Что такое торрент? · Рейтинг и ограничения

    !ВНИМАНИЕ!
    Сайт не распространяет и не хранит электронные версии произведений, а занимается лишь лишь предоставлением доступа к создаваемому пользователями каталогу ссылок на торрент-файлы, которые содержат только списки хеш-сумм, убедительная просьба с жалобами обращаться напрямую к пользователю. Файлы для обмена на трекере предоставлены пользователями сайта, и администрация не несёт ответственности за их содержание. Просьба не заливать файлы, защищенные авторскими правами, а также файлы нелегального содержания!


    _________________
    [Профиль] [ЛС]
    Показать сообщения:    
    Ответить на тему

    Текущее время: Сегодня, в 04:38

    Часовой пояс: GMT + 2



    Вы не можете начинать темы
    Вы не можете отвечать на сообщения
    Вы не можете редактировать свои сообщения
    Вы не можете удалять свои сообщения
    Вы не можете голосовать в опросах
    Вы не можете прикреплять файлы к сообщениям
    Вы не можете скачивать файлы