BitTorrentTracker PerecTracker.org
BitTorrentTracker PerecTracker.org
    
Регистрация  ·  Вход
 
 · 
Забыли пароль?

  • Свидание (Юсуп Бахшиев) [2012, комедия, BDRip]

    Ответить на тему
     
    Автор Сообщение

    Flirldrerve

    Создавать темы 16-Окт-2016 12:55

           

    [Цитировать]

    Свидание

    Жанр: комедия
    Год выпуска: 2012
    Продолжительность: 01:23:31

    Режиссёр: Юсуп Бахшиев
    В ролях: Владимир Кристовский, Екатерина Климова, Сергей Бадюк, Алёна Бабенко, Константин Мурзенко, Андрей Кайков, Григорий Сиятвинда, Нелли Неведина, Ольга Карпович, Геннадий Венгеров
    Описание: Молодой, неженатый, преуспевающий хирург Дмитрий Горин по совету сестры назначает свидание ее подруге - привлекательной учительнице Ане Светловой. Прекрасное создание, попав под действие алкоголя, на деловом обеде, столь важном для Дмитрия, теряет над собой контроль, и торжественное мероприятие превращается в кошмар.
    В довершение ко всему преследуемый похожим на Терминатора поклонником Ани, Дима остается без работы, любимого мотоцикла и ему грозит тюремное заключение. Начавшись столь невинно, свидание превращается в бесконечную череду комичных ситуаций, погонь и драк, что, впрочем, не помешает возникшим чувствам перерасти в настоящую любовь.

    Качество видео: BDRip
    Формат видео: AVI
    Видео: 720x304 (2.37:1), 25 fps, XviD build 73 ~2037 kbps avg, 0.37 bit/pixel
    Аудио: 48 kHz, AC3 Dolby Digital, 3/2 (L,C,R,l,r) + LFE ch, ~448 kbps

    MediaInfo

    Общее
    Полное имя : H:\Свидание.avi
    Формат : AVI
    Формат/Информация : Audio Video Interleave
    Размер файла : 1,46 Гбайт
    Продолжительность : 1 ч. 23 м.
    Общий поток : 2496 Кбит/сек
    Программа кодирования : VirtualDubMod 1.5.10.3 | www.virtualdub-fr.org || (build 2550/release)
    Библиотека кодирования : VirtualDubMod build 2550/release
    Видео
    Идентификатор : 0
    Формат : MPEG-4 Visual
    Профиль формата : Advanced Simple@L5
    Параметр BVOP формата : 2
    Параметр QPel формата : Нет
    Параметр GMC формата : Без точки перехода
    Параметр матрицы формата : Выборочная
    Идентификатор кодека : XVID
    Идентификатор кодека/Подсказка : XviD
    Продолжительность : 1 ч. 23 м.
    Битрейт : 2038 Кбит/сек
    Ширина : 720 пикселей
    Высота : 304 пикселя
    Соотношение сторон : 2,35:1
    Частота кадров : 25,000 кадров/сек
    Цветовое пространство : YUV
    Субдискретизация насыщенности : 4:2:0
    Битовая глубина : 8 бит
    Тип развёртки : Прогрессивная
    Метод сжатия : С потерями
    Бит/(Пиксели*Кадры) : 0.372
    Размер потока : 1,19 Гбайт (82%)
    Библиотека кодирования : XviD 73
    Аудио
    Идентификатор : 1
    Формат : AC-3
    Формат/Информация : Audio Coding 3
    Расширение режима : CM (complete main)
    Параметр Endianness формата : Big
    Идентификатор кодека : 2000
    Продолжительность : 1 ч. 23 м.
    Вид битрейта : Постоянный
    Битрейт : 448 Кбит/сек
    Каналы : 6 каналов
    Расположение каналов : Front: L C R, Side: L R, LFE
    Частота : 48,0 КГц
    Битовая глубина : 16 бит
    Метод сжатия : С потерями
    Размер потока : 268 Мбайт (18%)
    Выравнивание : Разделение по промежуткам
    Продолжительность промежутка : 40 мс. (1,00 видеокадр)
    Время предзагрузки промежутка : 500 мс.

    Скриншоты

    Релиз группы:

    -
    -
    Скачать .torrent

    Скачать торрент-файл бесплатно и на максимальной скорости!

    Как скачивать? · Что такое торрент? · Рейтинг и ограничения

    !ВНИМАНИЕ!
    Сайт не распространяет и не хранит электронные версии произведений, а занимается лишь лишь предоставлением доступа к создаваемому пользователями каталогу ссылок на торрент-файлы, которые содержат только списки хеш-сумм, убедительная просьба с жалобами обращаться напрямую к пользователю. Файлы для обмена на трекере предоставлены пользователями сайта, и администрация не несёт ответственности за их содержание. Просьба не заливать файлы, защищенные авторскими правами, а также файлы нелегального содержания!


    _________________
    [Профиль] [ЛС]
    Показать сообщения:    
    Ответить на тему

    Текущее время: Сегодня, в 00:40

    Часовой пояс: GMT + 2



    Вы не можете начинать темы
    Вы не можете отвечать на сообщения
    Вы не можете редактировать свои сообщения
    Вы не можете удалять свои сообщения
    Вы не можете голосовать в опросах
    Вы не можете прикреплять файлы к сообщениям
    Вы не можете скачивать файлы