BitTorrentTracker PerecTracker.org
BitTorrentTracker PerecTracker.org
    
Регистрация  ·  Вход
 
 · 
Забыли пароль?

  • Училка (Алексей Петрухин) [2015, драма, криминал, WEB-DLRip-AVC]

    Ответить на тему
     
    Автор Сообщение

    Flirldrerve

    Создавать темы 16-Окт-2016 08:45

           

    [Цитировать]

    Училка«Она приняла решение…»-Жанр: драма, криминал
    Год выпуска: 2015
    Продолжительность: 02:06:55
    Режиссер: Алексей Петрухин
    В ролях: Ирина Купченко, Анна Чурина, Роза Хайруллина, Андрей Мерзликин, Алиса Гребенщикова, Ольга Егорова, Анастасия Пономарева (Птаха), Дарья Дубникова (Милка), Акмал Аблаев (Надир), Алексей Лукин (Гуся), Валентин Садики (Мачо), Василиса Елпатьевская (Оксана Шевченко)
    Описание: Внезапную тишину школьных коридоров оглашает выстрел. Доведенная до крайности учительница истории берет в заложники целый класс. Но вскоре ситуация в корне меняется и заложницей становится она сама...- -Качество: WEB-DLRip-AVC (исходник - U4ILKA_WEB_DL_1080p-BLUEBIRD)
    Формат видео: MKV
    Видео: x264, 1024x576 (16:9), 25 fps, ~1197 kbps, 0,081 bit/pixel
    Аудио: 48 kHz, AC3 Dolby Digital, 3/2 (L,C,R,l,r) + LFE ch, ~384 kbps-MediaInfo | x264 log
    Format version : Version 4 / Version 2
    File size : 1.43 GiB
    Duration : 2 h 6 min
    Overall bit rate : 1 613 kb/s
    Movie name : Училка (2015) :: AFM ::
    Encoded date : UTC 2016-10-16 01:52:09
    Writing application : mkvmerge v8.3.0 ('Over the Horizon') 32bit
    Writing library : libebml v1.3.1 + libmatroska v1.4.2
    Video
    ID : 1
    Format : AVC
    Format/Info : Advanced Video Codec
    Format profile : High@L4.1
    Format settings, CABAC : Yes
    Format settings, ReFrames : 11 frames
    Codec ID : V_MPEG4/ISO/AVC
    Duration : 2 h 6 min
    Bit rate : 1 197 kb/s
    Width : 1 024 pixels
    Height : 576 pixels
    Display aspect ratio : 16:9
    Frame rate mode : Constant
    Frame rate : 25.000 FPS
    Color space : YUV
    Chroma subsampling : 4:2:0
    Bit depth : 8 bits
    Scan type : Progressive
    Bits/(Pixel*Frame) : 0.081
    Stream size : 1.06 GiB (74%)
    Title : WEB_DLRip by AFM
    Writing library : x264 core 148 r2721+55 e19946b t_mod_Custom [8-bit@all X86_64]
    Encoding settings : cabac=1 / ref=11 / deblock=1:-2:-2 / analyse=0x3:0x133 / me=umh / subme=10 / psy=1 / fade_compensate=0.00 / psy_rd=1.00:0.00 / mixed_ref=1 / me_range=32 / chroma_me=1 / trellis=2 / 8x8dct=1 / cqm=0 / deadzone=21,11 / fast_pskip=0 / chroma_qp_offset=-2 / threads=6 / lookahead_threads=1 / sliced_threads=0 / nr=0 / decimate=1 / interlaced=0 / bluray_compat=0 / constrained_intra=0 / fgo=0 / bframes=12 / b_pyramid=2 / b_adapt=2 / b_bias=0 / direct=1 / weightb=1 / open_gop=0 / weightp=2 / keyint=250 / keyint_min=25 / scenecut=40 / intra_refresh=0 / rc_lookahead=40 / rc=crf / mbtree=0 / crf=20.0500 / qcomp=0.65 / qpmin=0:0:0 / qpmax=69:69:69 / qpstep=4 / vbv_maxrate=50000 / vbv_bufsize=62500 / crf_max=0.0 / nal_hrd=none / filler=0 / ip_ratio=1.35 / pb_ratio=1.30 / aq=3:0.80 / aq-sensitivity=10.00 / aq-factor=1.00:1.00:1.00 / aq2=0 / aq3=0 / zones=187430,190388,q=30
    Language : Russian
    Default : Yes
    Forced : No
    Audio
    ID : 2
    Format : AC-3
    Format/Info : Audio Coding 3
    Mode extension : CM (complete main)
    Format settings, Endianness : Big
    Codec ID : A_AC3
    Duration : 2 h 6 min
    Bit rate mode : Constant
    Bit rate : 384 kb/s
    Channel(s) : 6 channels
    Channel positions : Front: L C R, Side: L R, LFE
    Sampling rate : 48.0 kHz
    Frame rate : 31.250 FPS (1536 spf)
    Compression mode : Lossy
    Stream size : 349 MiB (24%)
    Title : Original, AC3 5.1 ~384 kbps
    Language : Russian
    Default : Yes
    Forced : No
    Menu
    00:00:00.000 : en:Глава 1
    00:07:15.680 : en:Глава 2
    00:13:00.640 : en:Глава 3
    00:19:46.320 : en:Глава 4
    00:24:54.640 : en:Глава 5
    00:30:48.280 : en:Глава 6
    00:36:34.520 : en:Глава 7
    00:42:33.600 : en:Глава 8
    00:48:05.040 : en:Глава 9
    00:55:19.480 : en:Глава 10
    01:01:14.640 : en:Глава 11
    01:06:20.600 : en:Глава 12
    01:12:58.000 : en:Глава 13
    01:18:39.480 : en:Глава 14
    01:24:39.720 : en:Глава 15
    01:32:15.640 : en:Глава 16
    01:38:31.800 : en:Глава 17
    01:44:38.640 : en:Глава 18
    01:49:54.080 : en:Глава 19
    01:55:23.600 : en:Глава 20

    x264

    x264 [info]: frame I:1281 Avg QP:18.49 size: 41931
    x264 [info]: frame P:46133 Avg QP:19.96 size: 13690
    x264 [info]: frame B:142974 Avg QP:23.14 size: 3381
    x264 [info]: consecutive B-frames: 1.1% 2.1% 3.3% 72.3% 6.3% 11.9% 1.2% 1.2% 0.1% 0.1% 0.1% 0.2% 0.1%
    x264 [info]: mb I I16..4: 9.3% 69.8% 21.0%
    x264 [info]: mb P I16..4: 0.8% 5.0% 0.9% P16..4: 49.9% 19.2% 15.0% 0.3% 0.1% skip: 8.9%
    x264 [info]: mb B I16..4: 0.0% 0.4% 0.1% B16..8: 42.2% 6.0% 1.3% direct: 1.9% skip:48.1% L0:38.7% L1:52.1% BI: 9.2%
    x264 [info]: 8x8 transform intra:73.4% inter:70.3%
    x264 [info]: coded y,uvDC,uvAC intra: 78.7% 69.0% 33.9% inter: 10.1% 6.1% 0.4%
    x264 [info]: i16 v,h,dc,p: 28% 11% 5% 57%
    x264 [info]: i8 v,h,dc,ddl,ddr,vr,hd,vl,hu: 16% 8% 4% 8% 13% 15% 11% 13% 11%
    x264 [info]: i4 v,h,dc,ddl,ddr,vr,hd,vl,hu: 16% 8% 3% 10% 15% 16% 12% 11% 10%
    x264 [info]: i8c dc,h,v,p: 32% 25% 25% 18%
    x264 [info]: Weighted P-Frames: Y:1.1% UV:0.4%
    x264 [info]: ref P L0: 51.8% 10.9% 16.6% 5.3% 4.3% 3.1% 2.7% 1.4% 1.3% 1.2% 1.2% 0.0% 0.0%
    x264 [info]: ref B L0: 81.8% 8.8% 3.9% 1.7% 1.2% 0.9% 0.8% 0.4% 0.3% 0.2%
    x264 [info]: ref B L1: 95.4% 4.6%
    x264 [info]: kb/s:1227.63

    Скриншоты

    с названием

    Скачать .torrent

    Скачать торрент-файл бесплатно и на максимальной скорости!

    Как скачивать? · Что такое торрент? · Рейтинг и ограничения

    !ВНИМАНИЕ!
    Сайт не распространяет и не хранит электронные версии произведений, а занимается лишь лишь предоставлением доступа к создаваемому пользователями каталогу ссылок на торрент-файлы, которые содержат только списки хеш-сумм, убедительная просьба с жалобами обращаться напрямую к пользователю. Файлы для обмена на трекере предоставлены пользователями сайта, и администрация не несёт ответственности за их содержание. Просьба не заливать файлы, защищенные авторскими правами, а также файлы нелегального содержания!


    _________________
    [Профиль] [ЛС]
    Показать сообщения:    
    Ответить на тему

    Текущее время: Сегодня, в 12:17

    Часовой пояс: GMT + 2



    Вы не можете начинать темы
    Вы не можете отвечать на сообщения
    Вы не можете редактировать свои сообщения
    Вы не можете удалять свои сообщения
    Вы не можете голосовать в опросах
    Вы не можете прикреплять файлы к сообщениям
    Вы не можете скачивать файлы