BitTorrentTracker PerecTracker.org
BitTorrentTracker PerecTracker.org
    
Регистрация  ·  Вход
 
 · 
Забыли пароль?

  • Училка (Алексей Петрухин) [2015, Драма, WEB-DLRip]

    Ответить на тему
     
    Автор Сообщение

    Flirldrerve

    Создавать темы 16-Окт-2016 04:25

           

    [Цитировать]

    Училка

    «Она приняла решение…»
    -Жанр: Драма
    Год выпуска: 2015
    Продолжительность: 02:06:55
    -Режиссёр: Алексей Петрухин-В ролях: Ирина Купченко, Анна Чурина, Роза Хайруллина, Андрей Мерзликин, Алиса Гребенщикова, Ольга Егорова, Анастасия Пономарева, Дарья Дубникова, Акмал Аблаев, Алексей Лукин, Валентин Садики, Василиса Елпатьевская, Марк Тюриков, Алексей Огурцов, Руслан Калимуллин-Описание: Внезапную тишину школьных коридоров оглашает выстрел. Доведенная до крайности учительница истории берет в заложники целый класс. Но вскоре ситуация в корне меняется и заложницей становится она сама…- -Качество видео: WEB-DLRip
    Формат видео: AVI-Видео: 720x400 (16:9), 25.000 fps, XviD build 50, 1 148 Kbps, 0.15 bit/pixel
    Аудио: 48 kHz, AC3 Dolby Digital, 3/2 (L,C,R,l,r) + LFE ch, 384 Kbps

    MediaInfo

    General
    Complete name : Downloads\UCHiLLkO.2O16.O.WEB-DLRip.14OOMB
    Format : AVI
    Format/Info : Audio Video Interleave
    File size : 1.37 GiB
    Duration : 2h 6mn
    Overall bit rate : 1 542 Kbps
    Writing application : VirtualDubMod 1.5.10.2 (build 2540/release)
    Writing library : VirtualDubMod build 2540/release
    Video #0
    ID : 0
    Format : MPEG-4 Visual
    Format profile : Advanced Simple@L5
    Format settings, BVOP : 2
    Format settings, QPel : No
    Format settings, GMC : No warppoints
    Format settings, Matrix : Default (MPEG)
    Codec ID : XVID
    Codec ID/Hint : XviD
    Duration : 2h 6mn
    Bit rate : 1 148 Kbps
    Width : 720 pixels
    Height : 400 pixels
    Display aspect ratio : 16:9
    Frame rate : 25.000 fps
    Color space : YUV
    Chroma subsampling : 4:2:0
    Bit depth : 8 bits
    Scan type : Progressive
    Compression mode : Lossy
    Bits/(Pixel*Frame) : 0.159
    Stream size : 1.02 GiB (74%)
    Writing library : XviD 1.2.1 (UTC 2008-12-04)
    Audio #1
    ID : 1
    Format : AC-3
    Format/Info : Audio Coding 3
    Mode extension : CM (complete main)
    Format settings, Endianness : Big
    Codec ID : 2000
    Duration : 2h 6mn
    Bit rate mode : Constant
    Bit rate : 384 Kbps
    Channel(s) : 6 channels
    Channel positions : Front: L C R, Side: L R, LFE
    Sampling rate : 48.0 KHz
    Bit depth : 16 bits
    Compression mode : Lossy
    Stream size : 349 MiB (25%)
    Alignment : Split accross interleaves
    Interleave, duration : 40 ms (1.00 video frame)
    Interleave, preload duration : 500 ms

    Скриншот c названием фильма

    Скриншоты

    Факты о фильме

    • Семья и школа формируют личность человека. Причем школа и учителя зачастую делают для становления характера и стержня человека больше чем семья.
    • «Училка» - это ответ на важнейшие вопросы: что такое воспитание для современных подростков и на какой шаг может пойти учитель, доведенный до крайности? Это история педагога, Человека с большой буквы, который знает о последствиях поступков и не страшится их, понимает и принимает на себя всю ответственность. История о сильной женщине, но уставшей, немного разочарованной в жизни, но дающая свет молодым людям.
    • Экстремальная ситуация, в которую попадает учитель истории и 18 учеников, заставляет всех раскрыться и проявить лучшие и худшие стороны своей натуры. При этом картина остается очень светлой, с ярким и позитивным финалом, с глубокой философией и концепцией настоящей сильной личности.
    • Школьные сцены снимались в городе Королев в школе № 7. В этой школе учился исполнитель одной из главных ролей Андрей Мерзликин
    • Съёмки проходили в марте 2015 года
    • Режиссером-постановщиком картины «Училка» стал Алексей А. Петрухин. Его первой режиссерской работой была экспериментальная картина 2011 года «Быть или не быть», ставшая фильмом открытия Российской программы 33го ММКФ. Фильм был снят за три дня, и получил призы многих российских и международных фестивалей.
    Скачать .torrent

    Скачать торрент-файл бесплатно и на максимальной скорости!

    Как скачивать? · Что такое торрент? · Рейтинг и ограничения

    !ВНИМАНИЕ!
    Сайт не распространяет и не хранит электронные версии произведений, а занимается лишь лишь предоставлением доступа к создаваемому пользователями каталогу ссылок на торрент-файлы, которые содержат только списки хеш-сумм, убедительная просьба с жалобами обращаться напрямую к пользователю. Файлы для обмена на трекере предоставлены пользователями сайта, и администрация не несёт ответственности за их содержание. Просьба не заливать файлы, защищенные авторскими правами, а также файлы нелегального содержания!


    _________________
    [Профиль] [ЛС]
    Показать сообщения:    
    Ответить на тему

    Текущее время: Сегодня, в 06:02

    Часовой пояс: GMT + 2



    Вы не можете начинать темы
    Вы не можете отвечать на сообщения
    Вы не можете редактировать свои сообщения
    Вы не можете удалять свои сообщения
    Вы не можете голосовать в опросах
    Вы не можете прикреплять файлы к сообщениям
    Вы не можете скачивать файлы