BitTorrentTracker PerecTracker.org
BitTorrentTracker PerecTracker.org
    
Регистрация  ·  Вход
 
 · 
Забыли пароль?

  • Вуаль / The Veil (Фил Джоану / Phil Joanou) [2016, США, ужасы, BDRip] Dub

    Ответить на тему
     
    Автор Сообщение

    rechyn

    Создавать темы 16-Окт-2016 00:15

           

    [Цитировать]

    Вуаль / The Veil
    Страна: США
    Жанр: ужасы
    Год выпуска: 2016
    Продолжительность: 01:33:30
    Перевод: Профессиональный (дублированный)
    Cубтитры: нет
    Оригинальная аудиодорожка: нет-Режиссер: Фил Джоану / Phil Joanou-В ролях: Джессика Альба, Лили Рэйб, Томас Джейн, Алекса Палладино, Шеннон Мари Вудворд, Рейд Скотт, Ленни Джейкобсон, Миган Уорнер, Джек Де Сена, Дэвид Салливан-Описание:
    Спустя двадцать пять лет после того, как члены религиозного культа совершили массовое самоубийство, единственный выживший из них возвращается на место трагедии, прихватив с собой группу кинодокументалистов.--Качество видео: BDRip | The Veil (2016) 1080p BD-Remux HDClub
    Формат видео: AVI
    Видео: 720x304 (2.37:1), 23.976 fps, XviD build 73 ~2037 kbps avg, 0.39 bit/pixel
    Аудио: 48 kHz, AC3 Dolby Digital, 2/0 (L,R) ch, ~192 kbps-Скачать сэмпл-

    MediaInfo

    Формат                                   : AVI
    Формат/Информация                        : Audio Video Interleave
    Размер файла                             : 1,46 Гбайт
    Продолжительность                        : 1 ч. 33 м.
    Общий поток                              : 2239 Кбит/сек
    Программа кодирования                    : VirtualDubMod 1.5.10.3 | www.virtualdub-fr.org || (build 2550/release)
    Библиотека кодирования                   : VirtualDubMod build 2550/release
    Видео
    Идентификатор                            : 0
    Формат                                   : MPEG-4 Visual
    Профиль формата                          : Advanced Simple@L5
    Параметр BVOP формата                    : 1
    Параметр QPel формата                    : Нет
    Параметр GMC формата                     : Без точки перехода
    Параметр матрицы формата                 : Выборочная
    Идентификатор кодека                     : XVID
    Идентификатор кодека/Подсказка           : XviD
    Продолжительность                        : 1 ч. 33 м.
    Битрейт                                  : 2037 Кбит/сек
    Ширина                                   : 720 пикселей
    Высота                                   : 304 пикселя
    Соотношение сторон                       : 2,35:1
    Частота кадров                           : 23,976 (23976/1000) кадра/сек
    Цветовое пространство                    : YUV
    Субдискретизация насыщенности            : 4:2:0
    Битовая глубина                          : 8 бит
    Тип развёртки                            : Прогрессивная
    Метод сжатия                             : С потерями
    Бит/(Пиксели*Кадры)                      : 0.388
    Размер потока                            : 1,33 Гбайт (91%)
    Библиотека кодирования                   : XviD 73
    Аудио
    Идентификатор                            : 1
    Формат                                   : AC-3
    Формат/Информация                        : Audio Coding 3
    Расширение режима                        : CM (complete main)
    Параметр Endianness формата              : Big
    Идентификатор кодека                     : 2000
    Продолжительность                        : 1 ч. 33 м.
    Вид битрейта                             : Постоянный
    Битрейт                                  : 192 Кбит/сек
    Каналы                                   : 2 канала
    Расположение каналов                     : Front: L R
    Частота                                  : 48,0 КГц
    Частота кадров                           : 31,250 кадров/сек (1536 spf)
    Метод сжатия                             : С потерями
    Размер потока                            : 128 Мбайт (9%)
    Выравнивание                             : Разделение по промежуткам
    Продолжительность промежутка             : 42  мс. (1,00 видеокадр)
    Время предзагрузки промежутка            : 500  мс.

    Скриншоты

    Скачать .torrent

    Скачать торрент-файл бесплатно и на максимальной скорости!

    Как скачивать? · Что такое торрент? · Рейтинг и ограничения

    !ВНИМАНИЕ!
    Сайт не распространяет и не хранит электронные версии произведений, а занимается лишь лишь предоставлением доступа к создаваемому пользователями каталогу ссылок на торрент-файлы, которые содержат только списки хеш-сумм, убедительная просьба с жалобами обращаться напрямую к пользователю. Файлы для обмена на трекере предоставлены пользователями сайта, и администрация не несёт ответственности за их содержание. Просьба не заливать файлы, защищенные авторскими правами, а также файлы нелегального содержания!


    _________________
    [Профиль] [ЛС]
    Показать сообщения:    
    Ответить на тему

    Текущее время: Сегодня, в 20:36

    Часовой пояс: GMT + 2



    Вы не можете начинать темы
    Вы не можете отвечать на сообщения
    Вы не можете редактировать свои сообщения
    Вы не можете удалять свои сообщения
    Вы не можете голосовать в опросах
    Вы не можете прикреплять файлы к сообщениям
    Вы не можете скачивать файлы