BitTorrentTracker PerecTracker.org
BitTorrentTracker PerecTracker.org
    
Регистрация  ·  Вход
 
 · 
Забыли пароль?

  • Любовная ситуация – это непросто / Situation amoureuse: C\'est complique (Родольф Лога / Rodolphe Lauga, Маню Пайе / Manu Payet) [2014, Франция, комедийная мелодрама, DVB] MVO (SDI-Media) + Original (Fre) + Sub (Rus, Eng, Fre, Deu)

    Ответить на тему
     
    Автор Сообщение

    Light

    Создавать темы 16-Окт-2016 00:15

           

    [Цитировать]

    Любовная ситуация – это непросто
    Situation amoureuse: C'est compliqué-Страна: Франция
    Жанр: комедийная мелодрама
    Год выпуска: 2014
    Продолжительность: 01:34:18
    Перевод: Профессиональный (многоголосый закадровый) SDI-Media
    Cубтитры: русские (перевод М.Лабори, Eclair Media), английские, французские, немецкие, нидерландские
    Оригинальная аудиодорожка: французский
    Режиссер: Родольф Лога / Rodolphe Lauga, Маню Пайе / Manu PayetВ ролях: Маню Пайе / Manu Payet (Ben), Анаис Демустье / Anaïs Demoustier (Juliette), Эммануэль Шрики / Emmanuelle Chriqui (Vanessa), Филипп Дюкен / Philippe Duquesne (Armand), Жан Франсуа Кэйри / Jean-François Cayrey (Sylvain), Александр Стайгер / Alexandre Steiger (Pierre-Ange), Паскаль Демолон / Pascal Demolon (Playboy lycée)
    Описание: 30-летний Бен готовится к скорой свадьбе со своей невестой Джульеттой. Однако неожиданное возвращение в Париж его бывшей одноклассницы Ванессы спутывает парню все планы. В юности Бен был влюблен в девушку, но та совершенно игнорировала его. Теперь же ситуация изменилась, и Ванесса совсем не против близких отношений с ним. Решится ли Бен оставить невесту накануне свадьбы или останется верен ей?...
    Доп. информация: Hot Bird (13.0°E) TV5MONDE Europe DVB-S. Русская звуковая дорожка с раздачи HDTV 1080i.
    Награда: Гран-при за лучший полнометражный фильм Alpe d'Huez International Comedy Film Festival 2015.

    Качество видео: DVB
    Формат видео: MKV
    Видео: MPEG Video 2, 720x576@1024x576 (16:9), 25 fps, ~2849 kbps avg, 0.275 bit/pixel
    Аудио 1: AC3, 2 ch, 48 kHz, 192 kbps - русский
    Аудио 2: MPEG Audio 2, 2 ch, 48 kHz, 192 kbps - французский
    Формат субтитров: softsub (SRT)

    MediaInfo

    GeneralUnique ID : 251796660765116760549529955577829852010 (0xBD6E45DBE280312C8E93F3E06BBD036A)Complete name : [apreder]Situation_amoureuse_C'est_complique(2014)DVB.mkvFormat : MatroskaFormat version : Version 2File size : 2.17 GiBDuration : 1 h 34 minOverall bit rate : 3 299 kb/sMovie name : Situation amoureuse: C'est compliqueReleased date : 2014-03-19Encoded date : UTC 2016-10-15 15:06:39Writing application : mkvmerge v9.4.2 ('So High') 64bitWriting library : libebml v1.3.4 + libmatroska v1.4.5Cover : YesAttachments : cover.jpg / small_cover.jpgACTOR : Manu Payet, Anaпs DemoustierDIRECTOR : Rodolphe Lauga, Manu PayetGENRE : Comedy, RomanceIMDB : tt3202408KEYWORDS : perectracker.orgLAW_RATING : 16+
    VideoID : 1Format : MPEG VideoFormat version : Version 2Format profile : Main@MainFormat settings, BVOP : YesFormat settings, Matrix : CustomFormat settings, GOP : M=4, N=12Format settings, picture structure : FrameCodec ID : V_MPEG2Codec ID/Info : MPEG 1 or 2 VideoDuration : 1 h 34 minBit rate : 2 849 kb/sMaximum bit rate : 3 200 kb/sWidth : 720 pixelsHeight : 576 pixelsDisplay aspect ratio : 16:9Frame rate mode : ConstantFrame rate : 25.000 FPSStandard : PALColor space : YUVChroma subsampling : 4:2:0Bit depth : 8 bitsScan type : InterlacedScan order : Top Field FirstCompression mode : LossyBits/(Pixel*Frame) : 0.275Stream size : 1.88 GiB (86%)Default : YesForced : No
    Audio #1ID : 2Format : AC-3Format/Info : Audio Coding 3Mode extension : CM (complete main)Format settings, Endianness : BigCodec ID : A_AC3Duration : 1 h 34 minBit rate mode : ConstantBit rate : 192 kb/sChannel(s) : 2 channelsChannel positions : Front: L RSampling rate : 48.0 kHzFrame rate : 31.250 FPS (1536 spf)Compression mode : LossyStream size : 130 MiB (6%)Language : RussianDefault : NoForced : No
    Audio #2ID : 3Format : MPEG AudioFormat version : Version 1Format profile : Layer 2Mode : Joint stereoMode extension : Intensity Stereo + MS StereoCodec ID : A_MPEG/L2Codec ID/Hint : MP2Duration : 1 h 34 minBit rate mode : ConstantBit rate : 192 kb/sChannel(s) : 2 channelsSampling rate : 48.0 kHzCompression mode : LossyStream size : 130 MiB (6%)Language : FrenchDefault : YesForced : No
    Text #1ID : 4Format : UTF-8Codec ID : S_TEXT/UTF8Codec ID/Info : UTF-8 Plain TextLanguage : RussianDefault : NoForced : No
    Text #2ID : 5Format : UTF-8Codec ID : S_TEXT/UTF8Codec ID/Info : UTF-8 Plain TextLanguage : EnglishDefault : NoForced : No
    Text #3ID : 6Format : UTF-8Codec ID : S_TEXT/UTF8Codec ID/Info : UTF-8 Plain TextLanguage : FrenchDefault : NoForced : No
    Text #4ID : 7Format : UTF-8Codec ID : S_TEXT/UTF8Codec ID/Info : UTF-8 Plain TextLanguage : GermanDefault : NoForced : No
    Text #5ID : 8Format : UTF-8Codec ID : S_TEXT/UTF8Codec ID/Info : UTF-8 Plain TextLanguage : DutchDefault : NoForced : No

    Скриншот c названием фильма

    Скриншоты

    Резервные скриншоты


    -
    Скачать .torrent

    Скачать торрент-файл бесплатно и на максимальной скорости!

    Как скачивать? · Что такое торрент? · Рейтинг и ограничения

    !ВНИМАНИЕ!
    Сайт не распространяет и не хранит электронные версии произведений, а занимается лишь лишь предоставлением доступа к создаваемому пользователями каталогу ссылок на торрент-файлы, которые содержат только списки хеш-сумм, убедительная просьба с жалобами обращаться напрямую к пользователю. Файлы для обмена на трекере предоставлены пользователями сайта, и администрация не несёт ответственности за их содержание. Просьба не заливать файлы, защищенные авторскими правами, а также файлы нелегального содержания!


    _________________
    [Профиль] [ЛС]
    Показать сообщения:    
    Ответить на тему

    Текущее время: Сегодня, в 01:11

    Часовой пояс: GMT + 2



    Вы не можете начинать темы
    Вы не можете отвечать на сообщения
    Вы не можете редактировать свои сообщения
    Вы не можете удалять свои сообщения
    Вы не можете голосовать в опросах
    Вы не можете прикреплять файлы к сообщениям
    Вы не можете скачивать файлы