BitTorrentTracker PerecTracker.org
BitTorrentTracker PerecTracker.org
    
Регистрация  ·  Вход
 
 · 
Забыли пароль?

  • Прозрение / Les yeux ouverts (Лорен Леви / Lorraine Levy) [2014, Франция, Бельгия, драма, DVB] Original (Fre) + Sub (Rus, Eng, Fre, Deu)

    Ответить на тему
     
    Автор Сообщение

    Light

    Создавать темы 15-Окт-2016 15:55

           

    [Цитировать]

    Прозрение
    Les yeux ouverts-Страна: Франция, Бельгия
    Жанр: драма
    Год выпуска: 2014
    Продолжительность: 01:40:13
    Перевод: Субтитры (перевод М.Кузиной, Éclair Media)
    Cубтитры: русские, английские, французские, немецкие, нидерландские
    Оригинальная аудиодорожка: французский
    Режиссер: Лорен Леви / Lorraine LévyВ ролях: Клементин Селарье / Clémentine Célarié (Anne), Антуан Дюлери / Antoine Duléry (François), Жюльен Буасселье / Julien Boisselier (Paul), Арли Жове / Arly Jover (Hélène), Лилиан Ровер / Liliane Rovère (Louise), Янник Сулье / Yannick Soulier (Alex), Лиа О'Прэ / Liah O'Prey (Clara)
    Описание: Астрофизик Франсуа и джазовая пианистка Анн живут в Лилле вместе с двумя свими детьми: 16-летней Кларой и 10-летним Люсьеном. Это дружная семья с особенностями - оба родителя слепы. Франсуа потерял зрение во время несчастного случая в возрасте 7 лет, а Анн не видит от рождения. Их жизнь меняется, когда Франсуа предлагают вживить экспериментальную искуственную роговицу и восстановить зрение...
    Доп. информация: Hot Bird (13.0°E) TV5MONDE Europe DVB-S
    Награда: приз за лучший сценарий Luchon International Film Festival 2015.

    Качество видео: DVB
    Формат видео: MKV
    Видео: MPEG Video 2, 720x576@1024x576 (16:9), 25 fps, ~2860 kbps avg, 0.276 bit/pixel
    Аудио: MPEG Audio 2, 2 ch, 48 kHz, 192 kbps - французский
    Формат субтитров: softsub (SRT)

    Пример субтитров

    100:00:22,010 --> 00:00:25,010ПРОЗРЕНИЕ
    200:01:26,488 --> 00:01:29,488Ты нашла именно то,чего не хватало.
    300:01:33,964 --> 00:01:36,886Всем привет.
    400:01:36,886 --> 00:01:39,886Ясно.Очень мило.
    500:01:52,013 --> 00:01:55,013Плюс ноль,запятая, четыре,
    600:01:55,172 --> 00:01:57,364сто шестьдесят два,
    700:01:57,364 --> 00:02:00,364шесть, точка,пятнадцать, ноль,
    800:02:00,926 --> 00:02:02,364точка, ноль,
    900:02:02,364 --> 00:02:04,647точка, ноль, точка, ноль...
    1000:02:04,647 --> 00:02:07,647Это я.
    1100:02:09,326 --> 00:02:10,765Ваш новый ассистент.
    1200:02:10,765 --> 00:02:13,765Микаэль, я не глухой.Я слышал, как вы постучали,
    1300:02:13,844 --> 00:02:15,924открыли дверь и вошли.
    1400:02:15,924 --> 00:02:18,924Ну... Да.Но это мог быть кто-то другой.
    1500:02:19,682 --> 00:02:22,092Тут никтоне носит кроссовки на мягкой
    1600:02:22,092 --> 00:02:24,684подошве,которая хлюпает при каждом шаге.
    1700:02:24,684 --> 00:02:27,684И перед началом каждыйфразы вы говорите: "Э-э-э".
    1800:02:28,731 --> 00:02:31,728Послушайте, Микаэль.Не знаю, какой вы работник,
    1900:02:31,728 --> 00:02:34,728но человек вы очень забавный.
    2000:02:35,007 --> 00:02:38,007Звонит офтальмолог.Звонит офтальмолог.

    MediaInfo

    GeneralUnique ID : 181544705439786269392555199026758025988 (0x88943D0ABDB161BDA3910A4A6ACE0304)Complete name : [apreder]Les_yeux_ouverts(2014)DVB.mkvFormat : MatroskaFormat version : Version 2File size : 2.18 GiBDuration : 1 h 40 minOverall bit rate : 3 114 kb/sMovie name : Les yeux ouvertsReleased date : 2015-12-16Encoded date : UTC 2016-10-15 07:20:01Writing application : mkvmerge v9.4.2 ('So High') 64bitWriting library : libebml v1.3.4 + libmatroska v1.4.5Cover : YesAttachments : cover.png / small_cover.pngACTOR : Clementine Celarie, Antoine Dulery, Julien BoisselierDIRECTOR : Lorraine LevyGENRE : DramaIMDB : tt3994548KEYWORDS : perectracker.orgLAW_RATING : 16+
    VideoID : 1Format : MPEG VideoFormat version : Version 2Format profile : Main@MainFormat settings, BVOP : YesFormat settings, Matrix : CustomFormat settings, GOP : M=4, N=12Format settings, picture structure : FrameCodec ID : V_MPEG2Codec ID/Info : MPEG 1 or 2 VideoDuration : 1 h 40 minBit rate : 2 860 kb/sMaximum bit rate : 3 200 kb/sWidth : 720 pixelsHeight : 576 pixelsDisplay aspect ratio : 16:9Frame rate mode : ConstantFrame rate : 25.000 FPSStandard : PALColor space : YUVChroma subsampling : 4:2:0Bit depth : 8 bitsScan type : InterlacedScan order : Top Field FirstCompression mode : LossyBits/(Pixel*Frame) : 0.276Stream size : 2.00 GiB (92%)Default : YesForced : No
    AudioID : 2Format : MPEG AudioFormat version : Version 1Format profile : Layer 2Mode : Joint stereoMode extension : Intensity Stereo + MS StereoCodec ID : A_MPEG/L2Codec ID/Hint : MP2Duration : 1 h 40 minBit rate mode : ConstantBit rate : 192 kb/sChannel(s) : 2 channelsSampling rate : 48.0 kHzCompression mode : LossyStream size : 138 MiB (6%)Language : FrenchDefault : YesForced : No
    Text #1ID : 3Format : UTF-8Codec ID : S_TEXT/UTF8Codec ID/Info : UTF-8 Plain TextLanguage : RussianDefault : NoForced : No
    Text #2ID : 4Format : UTF-8Codec ID : S_TEXT/UTF8Codec ID/Info : UTF-8 Plain TextLanguage : EnglishDefault : NoForced : No
    Text #3ID : 5Format : UTF-8Codec ID : S_TEXT/UTF8Codec ID/Info : UTF-8 Plain TextLanguage : FrenchDefault : NoForced : No
    Text #4ID : 6Format : UTF-8Codec ID : S_TEXT/UTF8Codec ID/Info : UTF-8 Plain TextLanguage : GermanDefault : NoForced : No
    Text #5ID : 7Format : UTF-8Codec ID : S_TEXT/UTF8Codec ID/Info : UTF-8 Plain TextLanguage : DutchDefault : NoForced : No

    Скриншот c названием фильма

    Скриншоты

    Резервные скриншоты


    -
    Скачать .torrent

    Скачать торрент-файл бесплатно и на максимальной скорости!

    Как скачивать? · Что такое торрент? · Рейтинг и ограничения

    !ВНИМАНИЕ!
    Сайт не распространяет и не хранит электронные версии произведений, а занимается лишь лишь предоставлением доступа к создаваемому пользователями каталогу ссылок на торрент-файлы, которые содержат только списки хеш-сумм, убедительная просьба с жалобами обращаться напрямую к пользователю. Файлы для обмена на трекере предоставлены пользователями сайта, и администрация не несёт ответственности за их содержание. Просьба не заливать файлы, защищенные авторскими правами, а также файлы нелегального содержания!


    _________________
    [Профиль] [ЛС]
    Показать сообщения:    
    Ответить на тему

    Текущее время: Сегодня, в 18:50

    Часовой пояс: GMT + 2



    Вы не можете начинать темы
    Вы не можете отвечать на сообщения
    Вы не можете редактировать свои сообщения
    Вы не можете удалять свои сообщения
    Вы не можете голосовать в опросах
    Вы не можете прикреплять файлы к сообщениям
    Вы не можете скачивать файлы