BitTorrentTracker PerecTracker.org
BitTorrentTracker PerecTracker.org
    
Регистрация  ·  Вход
 
 · 
Забыли пароль?

  • Жених (Александр Незлобин) [2016, Комедия, WEB-DLRip-AVC]

    Ответить на тему
     
    Автор Сообщение

    Flirldrerve

    Создавать темы 15-Окт-2016 11:45

           

    [Цитировать]

    Жених
    «У моей жены есть жених...»
    -Год выхода: 2016
    Выпущено: Россия / Solaris Promo Production, ТНТ
    Жанр: комедия
    Продолжительность: 01:28:30
    Навигация по главам: Есть (15 глав)-Режиссёр:
    Александр Незлобин-В ролях:
    Сергей Светлаков (Толя), Светлана Смирнова-Марцинкевич (Алена), Филипп Рейнхардт (Гельмут), Ольга Картункова (Люба), Дмитрий Никулин (Лешка), Наталья Паршенкова (Балаша), Сергей Бурунов (Ерофеев), Александр Демидов (Покучаев), Георгий Дронов (Ляпичев), Тимофей Зайцев (танкист), Магомед Муртазаалиев (Мага), Махмуд Гусейнов (брат Маги)-Описание:
    Немец Гельмут приезжает в Россию, чтобы сделать предложение русской красавице Алене, с которой они познакомились в Берлине. Счастливая пара едет в деревню — знакомиться с родственниками невесты. Однако туда же приезжает и бывший муж Алены — Толя, который неожиданно решил вернуть жену. Все оборачивается романтическим соперничеством, в которое кроме Толи и Гельмута, вмешиваются их друзья, родственники, а также другие жители деревни — бизнесмен Ерофеев, купивший дом по соседству, заблудившийся танкист и даже змея.-Релиз групп
    | | КиноПоиск | Сэмпл |-Качество: WEB-DLRip-AVC [WEB-DL | 1080p | Кинозал]
    Формат: MKV
    Видео: 1040x584 (16:9), 25,000 fps, x264 ~2160 kbps avg, 0.142 bit/pixel
    Аудио: 48 kHz, AC3 Dolby Digital, 2/0 (L,R) ch, ~192 kbps avg-

    Скриншоты

    -

    MediaInfo

    Общее
    Полное имя                               : D:\Zhenih_2016_WEB-DLRip-AVC_by_Dalemake.mkv
    Формат                                   : Matroska
    Версия формата                           : Version 4 / Version 2
    Размер файла                             : 1,45 Гбайт
    Продолжительность                        : 1 ч. 28 м.
    Общий поток                              : 2353 Кбит/сек
    Название фильма                          : [Zhenih_2016_All Films Rutracker.org_by Dalemake]
    Дата кодирования                         : UTC 2016-10-14 04:30:40
    Программа кодирования                    : mkvmerge v7.8.0 ('River Man') 32bit built on Apr  3 2015 12:11:22
    Библиотека кодирования                   : libebml v1.3.1 + libmatroska v1.4.2
    DURATION                                 : 01:28:30.400000000
    NUMBER_OF_FRAMES                         : 165950
    NUMBER_OF_BYTES                          : 127449600
    _STATISTICS_WRITING_APP                  : mkvmerge v7.8.0 ('River Man') 32bit built on Apr  3 2015 12:11:22
    _STATISTICS_WRITING_DATE_UTC             : 2016-10-14 04:30:40
    _STATISTICS_TAGS                         : BPS DURATION NUMBER_OF_FRAMES NUMBER_OF_BYTES
    Видео
    Идентификатор                            : 1
    Формат                                   : AVC
    Формат/Информация                        : Advanced Video Codec
    Профиль формата                          : High@L4.1
    Параметр CABAC формата                   : Да
    Параметр ReFrames формата                : 11 кадров
    Идентификатор кодека                     : V_MPEG4/ISO/AVC
    Продолжительность                        : 1 ч. 28 м.
    Битрейт                                  : 2160 Кбит/сек
    Ширина                                   : 1040 пикселей
    Высота                                   : 584 пикселя
    Соотношение сторон                       : 16:9
    Частота кадров                           : 25,000 кадров/сек
    Цветовое пространство                    : YUV
    Субдискретизация насыщенности            : 4:2:0
    Битовая глубина                          : 8 бит
    Тип развёртки                            : Прогрессивная
    Бит/(Пиксели*Кадры)                      : 0.142
    Размер потока                            : 1,31 Гбайт (90%)
    Заголовок                                : [Zhenih_2016_All Films Rutracker.org_by Dalemake]
    Библиотека кодирования                   : x264 core 146 r2538 121396c
    Настройки программы                      : cabac=1 / ref=11 / deblock=1:-2:-2 / analyse=0x3:0x113 / me=umh / subme=11 / psy=1 / psy_rd=1.00:0.00 / mixed_ref=1 / me_range=48 / chroma_me=1 / trellis=2 / 8x8dct=1 / cqm=0 / deadzone=21,11 / fast_pskip=0 / chroma_qp_offset=-2 / threads=6 / lookahead_threads=1 / sliced_threads=0 / nr=0 / decimate=0 / interlaced=0 / bluray_compat=0 / constrained_intra=0 / bframes=10 / b_pyramid=2 / b_adapt=2 / b_bias=0 / direct=3 / weightb=1 / open_gop=0 / weightp=2 / keyint=240 / keyint_min=24 / scenecut=40 / intra_refresh=0 / rc_lookahead=60 / rc=2pass / mbtree=0 / bitrate=2160 / ratetol=1.0 / qcomp=0.60 / qpmin=0 / qpmax=69 / qpstep=4 / cplxblur=20.0 / qblur=0.5 / vbv_maxrate=50000 / vbv_bufsize=62500 / nal_hrd=none / filler=0 / ip_ratio=1.30 / pb_ratio=1.25 / aq=1:1.00
    Default                                  : Да
    Forced                                   : Да
    Аудио
    Идентификатор                            : 2
    Формат                                   : AC-3
    Формат/Информация                        : Audio Coding 3
    Расширение режима                        : CM (complete main)
    Параметр Endianness формата              : Big
    Идентификатор кодека                     : A_AC3
    Продолжительность                        : 1 ч. 28 м.
    Вид битрейта                             : Постоянный
    Битрейт                                  : 192 Кбит/сек
    Каналы                                   : 2 канала
    Расположение каналов                     : Front: L R
    Частота                                  : 48,0 КГц
    Битовая глубина                          : 16 бит
    Метод сжатия                             : С потерями
    Размер потока                            : 122 Мбайт (8%)
    Заголовок                                : iTunes Russia
    Язык                                     : Russian
    Default                                  : Да
    Forced                                   : Да
    Меню
    00:00:00.000                             : en:Глава 1
    00:05:31.720                             : en:Глава 2
    00:11:06.040                             : en:Глава 3
    00:16:19.240                             : en:Глава 4
    00:22:53.920                             : en:Глава 5
    00:28:27.480                             : en:Глава 6
    00:34:11.640                             : en:Глава 7
    00:40:35.040                             : en:Глава 8
    00:45:40.840                             : en:Глава 9
    00:50:53.120                             : en:Глава 10
    00:57:05.800                             : en:Глава 11
    01:02:49.040                             : en:Глава 12
    01:08:02.080                             : en:Глава 13
    01:14:05.960                             : en:Глава 14
    01:19:45.360                             : en:Глава 15
    -
    Скачать .torrent

    Скачать торрент-файл бесплатно и на максимальной скорости!

    Как скачивать? · Что такое торрент? · Рейтинг и ограничения

    !ВНИМАНИЕ!
    Сайт не распространяет и не хранит электронные версии произведений, а занимается лишь лишь предоставлением доступа к создаваемому пользователями каталогу ссылок на торрент-файлы, которые содержат только списки хеш-сумм, убедительная просьба с жалобами обращаться напрямую к пользователю. Файлы для обмена на трекере предоставлены пользователями сайта, и администрация не несёт ответственности за их содержание. Просьба не заливать файлы, защищенные авторскими правами, а также файлы нелегального содержания!


    _________________
    [Профиль] [ЛС]
    Показать сообщения:    
    Ответить на тему

    Текущее время: Сегодня, в 16:32

    Часовой пояс: GMT + 2



    Вы не можете начинать темы
    Вы не можете отвечать на сообщения
    Вы не можете редактировать свои сообщения
    Вы не можете удалять свои сообщения
    Вы не можете голосовать в опросах
    Вы не можете прикреплять файлы к сообщениям
    Вы не можете скачивать файлы