BitTorrentTracker PerecTracker.org
BitTorrentTracker PerecTracker.org
    
Регистрация  ·  Вход
 
 · 
Забыли пароль?

  • Дизлайк (Павел Руминов) [2016, Россия, ужасы, WEB-DLRip]

    Ответить на тему
     
    Автор Сообщение

    Flirldrerve

    Создавать темы 15-Окт-2016 11:45

           

    [Цитировать]

    Дизлайк
    Страна: Россия
    Жанр: ужасы
    Год выпуска: 2016
    Продолжительность: 01:27:12
    Cубтитры: нет-Режиссер: Павел Руминов-В ролях: Мария Вэй, Анастасия Акатова, Диана Мелисон, Олег Гаас, Евгений Дакот, Александр Панин, Никита Московой, Андрей Шугов, Сергей Волков-Описание: Они — кумиры миллионов, рок-звезды нового поколения! В свои 18-20 лет они зарабатывают за день, сколько их родители за несколько месяцев. Их видео собирают сотни тысяч «лайков», и не важно, разыгрывают ли они прохожих, рассказывают о кино и моде или снимают «вайны». Они — топовые видеоблогеры, за которыми охотятся рекламные агенты, мечтающие через новых звезд Интернета рассказать о своих товарах миру.
    Восьмерых самых популярных видеоблогеров российского Интернета собрали в роскошном загородном коттедже, вдали от цивилизации и мобильных сетей на одну ночь, чтобы они продегустировали новый энергетический напиток. Но рекламная дегустация оказалась приманкой, а коттедж — ловушкой. Теперь они все — участники викторины, устроенной неизвестным маньяком, в которой звучит только один вопрос: «Кто заказал ваше убийство?». Каждый неправильный ответ будет стоить жизни одного из них.--Качество видео: WEB-DLRip | WEB-DL 1080p HDClub
    Формат видео: AVI
    Видео: 720x304 (2.37:1), 24.000 fps, XviD build 73 ~2008 kbps avg, 0.38 bit/pixel
    Аудио: 48 kHz, AC3 Dolby Digital, 3/2 (L,C,R,l,r) + LFE ch, ~384 kbps-Скачать сэмпл-

    MediaInfo

    Формат                                   : AVI
    Формат/Информация                        : Audio Video Interleave
    Размер файла                             : 1,46 Гбайт
    Продолжительность                        : 1 ч. 27 м.
    Общий поток                              : 2402 Кбит/сек
    Программа кодирования                    : VirtualDubMod 1.5.10.3 | www.virtualdub-fr.org || (build 2550/release)
    Библиотека кодирования                   : VirtualDubMod build 2550/release
    Видео
    Идентификатор                            : 0
    Формат                                   : MPEG-4 Visual
    Профиль формата                          : Advanced Simple@L5
    Параметр BVOP формата                    : 1
    Параметр QPel формата                    : Нет
    Параметр GMC формата                     : Без точки перехода
    Параметр матрицы формата                 : Выборочная
    Идентификатор кодека                     : XVID
    Идентификатор кодека/Подсказка           : XviD
    Продолжительность                        : 1 ч. 27 м.
    Битрейт                                  : 2008 Кбит/сек
    Ширина                                   : 720 пикселей
    Высота                                   : 304 пикселя
    Соотношение сторон                       : 2,35:1
    Частота кадров                           : 24,000 кадра/сек
    Цветовое пространство                    : YUV
    Субдискретизация насыщенности            : 4:2:0
    Битовая глубина                          : 8 бит
    Тип развёртки                            : Прогрессивная
    Метод сжатия                             : С потерями
    Бит/(Пиксели*Кадры)                      : 0.382
    Размер потока                            : 1,22 Гбайт (84%)
    Библиотека кодирования                   : XviD 73
    Аудио
    Идентификатор                            : 1
    Формат                                   : AC-3
    Формат/Информация                        : Audio Coding 3
    Расширение режима                        : CM (complete main)
    Параметр Endianness формата              : Big
    Идентификатор кодека                     : 2000
    Продолжительность                        : 1 ч. 27 м.
    Вид битрейта                             : Постоянный
    Битрейт                                  : 384 Кбит/сек
    Каналы                                   : 6 каналов
    Расположение каналов                     : Front: L C R, Side: L R, LFE
    Частота                                  : 48,0 КГц
    Частота кадров                           : 31,250 кадров/сек (1536 spf)
    Метод сжатия                             : С потерями
    Размер потока                            : 240 Мбайт (16%)
    Выравнивание                             : Разделение по промежуткам
    Продолжительность промежутка             : 42  мс. (1,00 видеокадр)
    Время предзагрузки промежутка            : 500  мс.

    Скриншоты

    Скачать .torrent

    Скачать торрент-файл бесплатно и на максимальной скорости!

    Как скачивать? · Что такое торрент? · Рейтинг и ограничения

    !ВНИМАНИЕ!
    Сайт не распространяет и не хранит электронные версии произведений, а занимается лишь лишь предоставлением доступа к создаваемому пользователями каталогу ссылок на торрент-файлы, которые содержат только списки хеш-сумм, убедительная просьба с жалобами обращаться напрямую к пользователю. Файлы для обмена на трекере предоставлены пользователями сайта, и администрация не несёт ответственности за их содержание. Просьба не заливать файлы, защищенные авторскими правами, а также файлы нелегального содержания!


    _________________
    [Профиль] [ЛС]
    Показать сообщения:    
    Ответить на тему

    Текущее время: Сегодня, в 02:33

    Часовой пояс: GMT + 2



    Вы не можете начинать темы
    Вы не можете отвечать на сообщения
    Вы не можете редактировать свои сообщения
    Вы не можете удалять свои сообщения
    Вы не можете голосовать в опросах
    Вы не можете прикреплять файлы к сообщениям
    Вы не можете скачивать файлы