BitTorrentTracker PerecTracker.org
BitTorrentTracker PerecTracker.org
    
Регистрация  ·  Вход
 
 · 
Забыли пароль?

  • Сводные сестры (Игорь Москвитин) [2016, Мелодрама, WEB-DLRip]

    Ответить на тему
     
    Автор Сообщение

    Flirldrerve

    Создавать темы 15-Окт-2016 03:10

           

    [Цитировать]

    Сводные сестры
    Жанр: Мелодрама
    Год выпуска: 2016
    Продолжительность: 01:41:00
    Режиссёр: Игорь Москвитин
    В ролях: Наталия Антонова, Дмитрий Ульянов, Борис Хвошнянский, Екатерина Марченко, Юлия Шугар, Александр Рудько, Валентин Томусяк, Илья Носков, Георгий Лещенко (II), Екатерина Тышкевич
    Описание: Встреча бывших одноклассников становится для Ирины и Сергея судьбоносной – прежние чувства не остыли, и вскоре сорокалетние влюблённые понимают, что их расставание 25 лет назад было ошибкой. Сергей – вдовец, Ирина давно в разводе. Казалось бы, ничего не должно помешать их долгожданному счастью, но у обоих - взрослые дочери. Алина и Женя почти ровесницы, но характеры и жизненные ценности у девушек совершенно разные. Женя - целеустремленная, серьёзная, волевая. Алина – легкомысленная, ветреная, избалованная. Из-за столкновения характеров сводных сестёр счастье родителей становится под угрозой. Понимая, что могут снова потерять друг друга, Ирина и Сергей делают всё, чтобы сблизить дочерей. Но конфликт между девушками перерастает в открытую вражду. Напряжение достигает предела. Ирина и Сергей расстаются. Смогут ли сводные сёстры осознать свою вину и переступить через себя, через свой эгоизм ради счастья родителей? Или история любви Ирины и Сергея станет лишь ещё одним подтверждением грустной поговорки: в одну реку дважды войти нельзя?
    Релиз от:
    Сэмпл: http://multi-up.com/1122740
    Качество видео: WEB-DLRip
    Формат видео: AVI
    Видео: 720x400 (16:9), 25.000 fps, XviD build 73, 1718 Kbps
    Аудио: 48.0 kHz, AC3 Dolby Digital, 2 ch, 192 Kbps

    MediaInfo

    General
    Complete name : Downloads\Svodnye.sestry.2016.WEB-DLRip.Files-x.avi
    Format : AVI
    Format/Info : Audio Video Interleave
    File size : 1.37 GiB
    Duration : 1h 41mn
    Overall bit rate : 1 920 Kbps
    Writing application : VirtualDubMod 1.5.10.3 | www.virtualdub-fr.org || (build 2550/release)
    Writing library : VirtualDubMod build 2550/release
    Video #0
    ID : 0
    Format : MPEG-4 Visual
    Format profile : Advanced Simple@L5
    Format settings, BVOP : 1
    Format settings, QPel : No
    Format settings, GMC : No warppoints
    Format settings, Matrix : Custom
    Codec ID : XVID
    Codec ID/Hint : XviD
    Duration : 1h 41mn
    Bit rate : 1 718 Kbps
    Width : 720 pixels
    Height : 400 pixels
    Display aspect ratio : 16:9
    Frame rate : 25.000 fps
    Color space : YUV
    Chroma subsampling : 4:2:0
    Bit depth : 8 bits
    Scan type : Progressive
    Compression mode : Lossy
    Bits/(Pixel*Frame) : 0.239
    Stream size : 1.22 GiB (89%)
    Writing library : XviD 73
    Audio #1
    ID : 1
    Format : AC-3
    Format/Info : Audio Coding 3
    Mode extension : CM (complete main)
    Format settings, Endianness : Big
    Codec ID : 2000
    Duration : 1h 41mn
    Bit rate mode : Constant
    Bit rate : 192 Kbps
    Channel(s) : 2 channels
    Channel positions : Front: L R
    Sampling rate : 48.0 KHz
    Bit depth : 16 bits
    Compression mode : Lossy
    Stream size : 140 MiB (10%)
    Alignment : Split accross interleaves
    Interleave, duration : 40 ms (1.00 video frame)
    Interleave, preload duration : 500 ms

    Скриншот c названием фильма

    Скриншоты

    Скачать .torrent

    Скачать торрент-файл бесплатно и на максимальной скорости!

    Как скачивать? · Что такое торрент? · Рейтинг и ограничения

    !ВНИМАНИЕ!
    Сайт не распространяет и не хранит электронные версии произведений, а занимается лишь лишь предоставлением доступа к создаваемому пользователями каталогу ссылок на торрент-файлы, которые содержат только списки хеш-сумм, убедительная просьба с жалобами обращаться напрямую к пользователю. Файлы для обмена на трекере предоставлены пользователями сайта, и администрация не несёт ответственности за их содержание. Просьба не заливать файлы, защищенные авторскими правами, а также файлы нелегального содержания!


    _________________
    [Профиль] [ЛС]
    Показать сообщения:    
    Ответить на тему

    Текущее время: Сегодня, в 05:26

    Часовой пояс: GMT + 2



    Вы не можете начинать темы
    Вы не можете отвечать на сообщения
    Вы не можете редактировать свои сообщения
    Вы не можете удалять свои сообщения
    Вы не можете голосовать в опросах
    Вы не можете прикреплять файлы к сообщениям
    Вы не можете скачивать файлы