BitTorrentTracker PerecTracker.org
BitTorrentTracker PerecTracker.org
    
Регистрация  ·  Вход
 
 · 
Забыли пароль?

  • [ATV3] Крейсер / USS Indianapolis: Men of Courage (Марио Ван Пиблз / Mario Van Peebles ) [2016, США, Боевик, военный, WEB-DL, HD (1080p)] DUB

    Ответить на тему
     
    Автор Сообщение

    rechyn

    Создавать темы 15-Окт-2016 03:10

           

    [Цитировать]

    Крейсер / USS Indianapolis: Men of Courage
    -
    5.242 / 10 5.20 / 10
    -Год выпуска: 2016
    Страна: США
    Жанр: Боевик, военный
    Продолжительность: 02:04:34
    Перевод: Дублированный (iTunes)
    Оригинальная аудиодорожка: Нет
    Cубтитры: Нет
    Режиссёр: Марио Ван Пиблз
    Сценарий: Кэм Кэннон, Ричард Рионда Дель Кастро
    Продюсер: Майкл Мендельсон, Ричард Рионда Дель Кастро, Мартин Дж. Бараб
    Оператор: Анджей Секула
    Композитор: Лорен Эйкем
    Художник: Джо Леммон, Марк А. Терри, Патрик О’Дрисколл
    Монтаж: Роберт А. Ферретти
    В ролях: Николас Кейдж, Том Сайзмор, Томас Джейн, Мэтт Лантер, Вероника Розати, Коуди Уокер, Брайан Прэсли, Эмили Теннант, Каллард Харрис, Эмили Мари Палмер
    Бюджет: $40 000 000
    Сборы в России: $343 010
    Мировая премьера: 24 августа 2016
    Премьера (РФ): 22 сентября 2016, «Парадиз»
    Описание: Лето 1945 года. До конца Второй мировой оставались считанные недели… Крейсер ВМС США «Индианополис» доставил на американскую военную базу на острове Тиниан боеголовку атомной бомбы. На обратном рейде корабль был торпедирован японцами и пошел ко дну. «SOS!» капитана Маквэя не был услышан. И живые позавидовали мертвым: палящее солнце и зубы акул, жажда и галлюцинации, безумие и адские муки отчаяния…-Качество исходника: WEB-DL 1080p (BlueBird)
    Качество: WEB-DL
    Тип: HD (1080p)
    Контейнер: M4V
    Видео: H.264, 1920x800, 2.40:1, 4 521 Kbps, 25.000 fps
    Аудио 1: Русский/Дублированный (iTunes), AAC / 2.0 / 160 Kbps / 48.0 KHz
    Аудио 2: Русский/Дублированный (iTunes), AC-3 / 5.1 / 384 Kbps / 48.0 KHz
    -

    iTunes Meta Tags

    Sort Name: USS Indianapolis: Men of Courage
    XID: Apple:vendor_id:2016-609875
    contentID: 1153930098
    Copyright: © 2016 Indianapolis Production Inc.
    Screenwriters: Кэм Кэннон, Ричард Рионда Дель Кастро
    Producers: Майкл Мендельсон, Ричард Рионда Дель Кастро, Мартин Дж. Бараб
    Director: Марио Ван Пиблз
    Cast: Николас Кейдж, Том Сайзмор, Томас Джейн, Мэтт Лантер, Вероника Розати, Коуди Уокер, Брайан Прэсли, Эмили Теннант, Каллард Харрис, Эмили Мари Палмер, Александр Рахленко, Александр Носков, Александр Хошабаев
    Studio: Lionsgate
    Rating: 5
    Long Description: Лето 1945 года. До конца Второй мировой оставались считанные недели... Крейсер ВМС США "Индианополис" доставил на американскую военную базу на острове Тиниан боеголовку атомной бомбы. На обратном рейде корабль был торпедирован японцами и пошел ко дну. "SOS!" капитана Маквэя не был услышан. И живые позавидовали мертвым: палящее солнце и зубы акул, жажда и галлюцинации, безумие и адские муки отчаяния...
    Description: Лето 1945 года. До конца Второй мировой оставались считанные недели... Крейсер ВМС США "Индианополис" доставил на американскую военную базу на острове Тиниан боеголовку атомной бомбы. На обратном рейде корабль был торпедирован японцами и пошел ко дну. "SOS!" капитана Маквэя не был услышан. И живые позавидовали мертвым: палящее солнце и зубы акул, жажда и галлюцинации, безумие и адские муки отчаяния...
    Release Date: 2016-08-24T08:00:00Z
    Genre: Action & Adventure
    Artist: Mario Van Peebles
    Name: USS Indianapolis: Men of Courage

    MediaInfo

    General
    Complete name : /Users/imac/HandBrake/Kreyser.WEB-DL.1080p.m4v
    Format : MPEG-4
    Codec ID : M4V
    File size : 4.41 GiB
    Duration : 2h 4mn
    Overall bit rate mode : Variable
    Overall bit rate : 5 070 Kbps
    Movie name : USS Indianapolis: Men of Courage
    Performer : Mario Van Peebles
    Director : Марио Ван Пиблз
    Actor : Николас Кейдж / Том Сайзмор / Томас Джейн / Мэтт Лантер / Вероника Розати / Коуди Уокер / Брайан Прэсли / Эмили Теннант / Каллард Харрис / Эмили Мари Палмер / Александр Рахленко / Александр Носков / Александр Хошабаев
    Screenplay by : Кэм Кэннон / Ричард Рионда Дель Кастро
    Producer : Майкл Мендельсон / Ричард Рионда Дель Кастро / Мартин Дж. Бараб
    Production studio : Lionsgate
    Genre : Action & Adventure
    ContentType : Short Film
    Description : Лето 1945 года. До конца Второй мировой оставались считанные недели... Крейсер ВМС США "Индианополис" доставил на американскую военную базу на острове Тиниан боеголовку атомной бомбы. На обратном рейде корабль был торпедирован японцами и пошел ко дну. "SOS!" капитана Маквэя не был услышан. И живые позавидовали мертвым: палящее солнце и зубы акул, жажда и галлюцинации, безумие и адские муки отчаяния...
    Recorded date : UTC 2016-08-24 08:00:00
    Encoded date : UTC 2016-10-14 09:35:08
    Tagged date : UTC 2016-10-14 09:39:46
    Copyright : © 2016 Indianapolis Production Inc.
    Cover : Yes
    Rating : None
    Title/Sort : USS Indianapolis: Men of Courage
    LongDescription : Лето 1945 года. До конца Второй мировой оставались считанные недели... Крейсер ВМС США "Индианополис" доставил на американскую военную базу на острове Тиниан боеголовку атомной бомбы. На обратном рейде корабль был торпедирован японцами и пошел ко дну. "SOS!" капитана Маквэя не был услышан. И живые позавидовали мертвым: палящее солнце и зубы акул, жажда и галлюцинации, безумие и адские муки отчаяния...
    AppleStoreCatalogID : 1153930098
    Vendor : Apple:vendor_id:2016-609875
    ContentRating : mpaa|R|400|
    Video #1
    ID : 1
    Format : AVC
    Format/Info : Advanced Video Codec
    Format profile : High@L4
    Format settings, CABAC : Yes
    Format settings, ReFrames : 5 frames
    Codec ID : avc1
    Codec ID/Info : Advanced Video Coding
    Duration : 2h 4mn
    Bit rate : 4 521 Kbps
    Width : 1 920 pixels
    Height : 800 pixels
    Display aspect ratio : 2.40:1
    Frame rate mode : Constant
    Frame rate : 25.000 fps
    Color space : YUV
    Chroma subsampling : 4:2:0
    Bit depth : 8 bits
    Scan type : Progressive
    Bits/(Pixel*Frame) : 0.118
    Stream size : 3.93 GiB (89%)
    Title : Main Program
    Language : English
    Encoded date : UTC 2016-10-14 09:35:08
    Tagged date : UTC 2016-10-14 09:37:01
    Color range : Limited
    Color primaries : BT.709
    Transfer characteristics : BT.709
    Matrix coefficients : BT.709
    Video #2
    ID : 5
    Format : JPEG
    Codec ID : jpeg
    Duration : 2h 4mn
    Bit rate mode : Variable
    Bit rate : 541 bps
    Width : 640 pixels
    Height : 266 pixels
    Display aspect ratio : 2.40:1
    Frame rate mode : Variable
    Frame rate : 0.002 fps
    Minimum frame rate : 0.001 fps
    Maximum frame rate : 0.004 fps
    Color space : YUV
    Chroma subsampling : 4:2:0
    Bit depth : 8 bits
    Compression mode : Lossy
    Bits/(Pixel*Frame) : 1.589
    Stream size : 562 KiB (0%)
    Title : Chapter Images
    Language : English
    Encoded date : UTC 2016-10-14 09:37:07
    Tagged date : UTC 2016-10-14 09:37:08
    Audio #1
    ID : 2
    Format : AAC
    Format/Info : Advanced Audio Codec
    Format profile : LC
    Codec ID : 40
    Duration : 2h 4mn
    Bit rate mode : Variable
    Bit rate : 157 Kbps
    Maximum bit rate : 233 Kbps
    Channel(s) : 2 channels
    Channel positions : Front: L R
    Sampling rate : 48.0 KHz
    Compression mode : Lossy
    Stream size : 140 MiB (3%)
    Title : Russian Stereo
    Language : Russian
    Encoded date : UTC 2016-10-14 09:35:08
    Tagged date : UTC 2016-10-14 09:35:13
    Audio #2
    ID : 3
    Format : AC-3
    Format/Info : Audio Coding 3
    Mode extension : CM (complete main)
    Format settings, Endianness : Big
    Codec ID : ac-3
    Duration : 2h 4mn
    Bit rate mode : Constant
    Bit rate : 384 Kbps
    Channel(s) : 6 channels
    Channel positions : Front: L C R, Side: L R, LFE
    Sampling rate : 48.0 KHz
    Bit depth : 16 bits
    Compression mode : Lossy
    Stream size : 342 MiB (8%)
    Title : Russian DD 5.1
    Language : Russian
    Encoded date : UTC 2016-10-14 09:35:08
    Tagged date : UTC 2016-10-14 09:37:01
    Menu #1
    00:00:00.000 : 1
    00:06:47.880 : 2
    00:15:29.120 : 3
    00:23:52.280 : 4
    00:28:41.840 : 5
    00:34:03.840 : 6
    00:41:05.760 : 7
    00:51:06.920 : 8
    00:57:08.280 : 9
    01:03:45.160 : 10
    01:10:45.520 : 11
    01:18:32.200 : 12
    01:25:52.000 : 13
    01:32:05.600 : 14
    01:38:51.760 : 15
    01:49:20.879 : 16
    01:53:10.120 : 17
    Menu #2
    ID : 4
    Codec ID : text
    Duration : 2h 4mn
    Language : English
    Encoded date : UTC 2016-10-14 09:37:02
    Tagged date : UTC 2016-10-14 09:37:02
    00:00:00.000 : 1
    00:06:47.880 : 2
    00:15:29.120 : 3
    00:23:52.280 : 4
    00:28:41.840 : 5
    00:34:03.840 : 6
    00:41:05.760 : 7
    00:51:06.920 : 8
    00:57:08.280 : 9
    01:03:45.160 : 10
    01:10:45.520 : 11
    01:18:32.200 : 12
    01:25:52.000 : 13
    01:32:05.600 : 14
    01:38:51.760 : 15
    01:49:20.879 : 16
    01:53:10.120 : 17
    Bit rate mode : VBR

    Скриншоты

    -

    Релиз подготовлен для просмотра на Apple TV, iPad, iPhone, iPod Touch.
    Для просмотра данного релиза на компьютере с ОС Windows рекомендуется использовать VLC media player
    Скачать .torrent

    Скачать торрент-файл бесплатно и на максимальной скорости!

    Как скачивать? · Что такое торрент? · Рейтинг и ограничения

    !ВНИМАНИЕ!
    Сайт не распространяет и не хранит электронные версии произведений, а занимается лишь лишь предоставлением доступа к создаваемому пользователями каталогу ссылок на торрент-файлы, которые содержат только списки хеш-сумм, убедительная просьба с жалобами обращаться напрямую к пользователю. Файлы для обмена на трекере предоставлены пользователями сайта, и администрация не несёт ответственности за их содержание. Просьба не заливать файлы, защищенные авторскими правами, а также файлы нелегального содержания!


    _________________
    [Профиль] [ЛС]
    Показать сообщения:    
    Ответить на тему

    Текущее время: Сегодня, в 06:14

    Часовой пояс: GMT + 2



    Вы не можете начинать темы
    Вы не можете отвечать на сообщения
    Вы не можете редактировать свои сообщения
    Вы не можете удалять свои сообщения
    Вы не можете голосовать в опросах
    Вы не можете прикреплять файлы к сообщениям
    Вы не можете скачивать файлы