BitTorrentTracker PerecTracker.org
BitTorrentTracker PerecTracker.org
    
Регистрация  ·  Вход
 
 · 
Забыли пароль?

  • И гаснет свет... / Lights Out (Дэвид Ф. Сандберг / David F. Sandberg) [2016, США, ужасы, триллер, WEB-DLRip-AVC] Dub + Sub (rus)

    Ответить на тему
     
    Автор Сообщение

    rechyn

    Создавать темы 15-Окт-2016 03:10

           

    [Цитировать]

    И гаснет свет... / Lights Out«You were right to be afraid of the dark»-Страна: США
    Жанр: ужасы, триллер
    Год выпуска: 2016
    Продолжительность: 01:20:55
    Перевод: Профессиональный (дублированный) (iTunes)
    Оригинальная аудиодорожка: нет
    Субтитры: русские (форс., на надписи)
    Навигация по главам: есть
    Режиссер: Дэвид Ф. Сандберг / David F. Sandberg
    В ролях: Тереза Палмер (Rebecca), Гэбриел Бейтман (Martin), Александр ДиПерсиа (Bret), Билли Бёрк (Paul), Мария Белло (Sophie), Алисия Вела-Бэйли (Diana), Энди Ошо (Emma), Роландо Бойс (Officer Brian Andrews), Мария Расселл (Officer Gomez), Элизабет Пан (Nurse), Лотта Лостен (Esther), Амья Миллер (Young Rebecca)
    Описание: Когда Ребекка покинула родной дом, она думала, что её детские страхи остались позади. Ребенком она никогда не была уверена, что реально, а что нет, когда гас свет, и теперь её младший брат Мартин переживает те же необъяснимые и ужасные события, которые когда-то испытывали на прочность её рассудок и угрожали её безопасности. Пугающее нечто, таинственным образом привязанное к их матери Софи, появилось вновь. Но на этот раз Ребекка подбирается к разгадке истины, и уже не остается сомнений в том, что их жизни в опасности, как только будет погашен свет.- -Качество: WEB-DLRip-AVC (исходник - Lights.Out.2016.1080p.WEB-DL.DD5.1.H264-FGT)
    Формат видео: MKV
    Видео: x264, 1136x472 (2.40:1), 23,976 fps, ~2190 kbps, 0,170 bit/pixel
    Аудио: 48 kHz, AC3 Dolby Digital, 5.1, (Front: L C R, Side: L R, LFE) ch, ~ 384 kbps
    Формат субтитров: softsub (SRT)-MediaInfo | x264 log
    Format : Matroska
    Format version : Version 4 / Version 2
    File size : 1.45 GiB
    Duration : 1h 20 min
    Overall bit rate : 2 571 kb/s
    Movie name : И гаснет свет... / Lights Out (2016) :: AFM ::
    Encoded date : UTC 2016-10-12 14:34:11
    Writing application : mkvmerge v8.3.0 ('Over the Horizon') 32bit
    Writing library : libebml v1.3.1 + libmatroska v1.4.2
    Video
    ID : 1
    Format : AVC
    Format/Info : Advanced Video Codec
    Format profile : High@L4.1
    Format settings, CABAC : Yes
    Format settings, ReFrames : 10 frames
    Codec ID : V_MPEG4/ISO/AVC
    Duration : 1h 20 min
    Bit rate : 2 190 kb/s
    Width : 1 136 pixels
    Height : 472 pixels
    Display aspect ratio : 2.40:1
    Frame rate mode : Constant
    Frame rate : 23.976 (24000/1001) FPS
    Color space : YUV
    Chroma subsampling : 4:2:0
    Bit depth : 8 bits
    Scan type : Progressive
    Bits/(Pixel*Frame) : 0.170
    Stream size : 1.21 GiB (83%)
    Title : WEB_DLRip by AFM
    Writing library : x264 core 148 r2721+55 e19946b t_mod_Custom [8-bit@all X86_64]
    Encoding settings : cabac=1 / ref=10 / deblock=1:-3:-2 / analyse=0x3:0x133 / me=umh / subme=10 / psy=1 / fade_compensate=0.00 / psy_rd=1.00:0.00 / mixed_ref=1 / me_range=32 / chroma_me=1 / trellis=2 / 8x8dct=1 / cqm=0 / deadzone=21,11 / fast_pskip=0 / chroma_qp_offset=-2 / threads=6 / lookahead_threads=1 / sliced_threads=0 / nr=0 / decimate=0 / interlaced=0 / bluray_compat=0 / constrained_intra=0 / fgo=0 / bframes=11 / b_pyramid=2 / b_adapt=2 / b_bias=0 / direct=3 / weightb=1 / open_gop=0 / weightp=2 / keyint=250 / keyint_min=23 / scenecut=40 / intra_refresh=0 / rc_lookahead=40 / rc=2pass / mbtree=0 / bitrate=2190 / ratetol=1.0 / qcomp=0.65 / qpmin=0:0:0 / qpmax=69:69:69 / qpstep=4 / cplxblur=20.0 / qblur=0.5 / vbv_maxrate=50000 / vbv_bufsize=62500 / nal_hrd=none / filler=0 / ip_ratio=1.35 / pb_ratio=1.30 / aq=3:0.80 / aq-sensitivity=10.00 / aq-factor=1.00:1.00:1.00 / aq2=0 / aq3=0
    Language : English
    Default : Yes
    Forced : No
    Audio
    ID : 3
    Format : AC-3
    Format/Info : Audio Coding 3
    Mode extension : CM (complete main)
    Format settings, Endianness : Big
    Codec ID : A_AC3
    Duration : 1h 20 min
    Bit rate mode : Constant
    Bit rate : 384 kb/s
    Channel(s) : 6 channels
    Channel positions : Front: L C R, Side: L R, LFE
    Sampling rate : 48.0 kHz
    Frame rate : 31.250 FPS (1536 spf)
    Compression mode : Lossy
    Stream size : 222 MiB (15%)
    Title : Dub, AC3 5.1 ~384 kbps
    Language : Russian
    Default : Yes
    Forced : No
    Text
    ID : 2
    Format : UTF-8
    Codec ID : S_TEXT/UTF8
    Codec ID/Info : UTF-8 Plain Text
    Title : forced
    Language : Russian
    Default : Yes
    Forced : No
    Menu
    00:00:00.000 : en:1
    00:10:01.000 : en:2
    00:21:07.000 : en:3
    00:30:12.000 : en:4
    00:40:57.000 : en:5
    00:50:38.000 : en:6
    00:58:43.000 : en:7
    01:09:54.000 : en:8
    01:16:20.000 : en:9

    x264

    x264 [info]: frame I:864 Avg QP:13.23 size: 66084
    x264 [info]: frame P:29627 Avg QP:15.95 size: 23364
    x264 [info]: frame B:85916 Avg QP:18.14 size: 6717
    x264 [info]: consecutive B-frames: 2.1% 3.5% 8.5% 60.0% 9.3% 12.6% 1.2% 1.2% 0.9% 0.2% 0.1% 0.2%
    x264 [info]: mb I I16..4: 8.0% 74.7% 17.3%
    x264 [info]: mb P I16..4: 2.2% 10.6% 1.3% P16..4: 38.4% 24.1% 15.9% 0.5% 0.2% skip: 7.0%
    x264 [info]: mb B I16..4: 0.1% 0.7% 0.1% B16..8: 35.7% 11.4% 3.1% direct: 6.2% skip:42.8% L0:41.8% L1:45.0% BI:13.2%
    x264 [info]: 8x8 transform intra:75.3% inter:56.8%
    x264 [info]: direct mvs spatial:97.4% temporal:2.6%
    x264 [info]: coded y,uvDC,uvAC intra: 77.4% 77.9% 59.2% inter: 22.6% 18.0% 8.9%
    x264 [info]: i16 v,h,dc,p: 53% 13% 10% 23%
    x264 [info]: i8 v,h,dc,ddl,ddr,vr,hd,vl,hu: 17% 7% 12% 8% 11% 12% 10% 11% 11%
    x264 [info]: i4 v,h,dc,ddl,ddr,vr,hd,vl,hu: 17% 7% 6% 10% 14% 14% 11% 11% 10%
    x264 [info]: i8c dc,h,v,p: 45% 21% 21% 13%
    x264 [info]: Weighted P-Frames: Y:4.2% UV:2.6%
    x264 [info]: ref P L0: 51.2% 7.3% 18.2% 6.5% 5.3% 3.4% 3.2% 1.7% 1.7% 1.4% 0.1% 0.0%
    x264 [info]: ref B L0: 76.2% 11.4% 4.8% 2.6% 1.7% 1.4% 1.0% 0.6% 0.3%
    x264 [info]: ref B L1: 96.1% 3.9%
    x264 [info]: kb/s:2185.48

    Скриншоты

    с названием

    Скачать .torrent

    Скачать торрент-файл бесплатно и на максимальной скорости!

    Как скачивать? · Что такое торрент? · Рейтинг и ограничения

    !ВНИМАНИЕ!
    Сайт не распространяет и не хранит электронные версии произведений, а занимается лишь лишь предоставлением доступа к создаваемому пользователями каталогу ссылок на торрент-файлы, которые содержат только списки хеш-сумм, убедительная просьба с жалобами обращаться напрямую к пользователю. Файлы для обмена на трекере предоставлены пользователями сайта, и администрация не несёт ответственности за их содержание. Просьба не заливать файлы, защищенные авторскими правами, а также файлы нелегального содержания!


    _________________
    [Профиль] [ЛС]
    Показать сообщения:    
    Ответить на тему

    Текущее время: Сегодня, в 22:29

    Часовой пояс: GMT + 2



    Вы не можете начинать темы
    Вы не можете отвечать на сообщения
    Вы не можете редактировать свои сообщения
    Вы не можете удалять свои сообщения
    Вы не можете голосовать в опросах
    Вы не можете прикреплять файлы к сообщениям
    Вы не можете скачивать файлы