BitTorrentTracker PerecTracker.org
BitTorrentTracker PerecTracker.org
    
Регистрация  ·  Вход
 
 · 
Забыли пароль?

  • Чудо с косичками (1974) IPTVRip

    Ответить на тему
     
    Автор Сообщение

    Light

    Создавать темы 14-Окт-2016 22:39

           

    [Цитировать]

    - Чудо с косичками (1974) IPTVRip -Производство: СССР, Мосфильм, Беларусьфильм
    Жанр: Драма, спорт
    Режиссер: Виктор Титов
    Актеры: Ирина Мазуркевич, Анна Жарова, Игорь Ясулович, Александр Калягин, Наум Дымарский, Нина Агапова, Александр Халецкий, Елена Брацлавская
    Описание:
    «Чудо с косичками» — так в середине 70-х в спортивном мире называли юную советскую гимнастку Ольгу Корбут. Ее феноменальная одаренность, юный возраст и совсем недетское желание всегда и во всем быть первой поражали всех, кто ее знал. В основе фильма — реальные факты биографии прославленной гимнастки.


    Продолжительность: 01:15:44
    Качество видео: IPTVRip
    Видео: DivX 5, 720x308, ~1500 kbps
    Аудио: MP3, 1 ch, 128 kbps, CBR

    MI

    Общее
    Полное имя                               : U:\Чудо с косичками (1974) IPTVRip.avi
    Формат                                   : AVI
    Формат/Информация                        : Audio Video Interleave
    Размер файла                             : 887 Мбайт
    Продолжительность                        : 1 ч. 15 м.
    Общий поток                              : 1638 Кбит/сек
    Библиотека кодирования                   : VirtualDub build 35491/release
    Видео
    Идентификатор                            : 0
    Формат                                   : MPEG-4 Visual
    Параметр BVOP формата                    : 2
    Параметр QPel формата                    : Нет
    Параметр GMC формата                     : Без точки перехода
    Параметр матрицы формата                 : Default (H.263)
    Режим смешивания                         : Сжатый битовый поток
    Идентификатор кодека                     : DX50
    Идентификатор кодека/Подсказка           : DivX 5
    Продолжительность                        : 1 ч. 15 м.
    Битрейт                                  : 1500 Кбит/сек
    Ширина                                   : 720 пикселей
    Высота                                   : 308 пикселей
    Соотношение сторон                       : 2,35:1
    Частота кадров                           : 25,000 кадров/сек
    Цветовое пространство                    : YUV
    Субдискретизация насыщенности            : 4:2:0
    Битовая глубина                          : 8 бит
    Тип развёртки                            : Прогрессивная
    Метод сжатия                             : С потерями
    Бит/(Пиксели*Кадры)                      : 0.271
    Размер потока                            : 813 Мбайт (92%)
    Библиотека кодирования                   : DivX 6.8.5 (UTC 2009-08-20)
    Аудио
    Идентификатор                            : 1
    Формат                                   : MPEG Audio
    Версия формата                           : Version 1
    Профиль формата                          : Layer 3
    Идентификатор кодека                     : 55
    Идентификатор кодека/Подсказка           : MP3
    Продолжительность                        : 1 ч. 15 м.
    Вид битрейта                             : Постоянный
    Битрейт                                  : 128 Кбит/сек
    Каналы                                   : 1 канал
    Частота                                  : 48,0 КГц
    Метод сжатия                             : С потерями
    Размер потока                            : 69,3 Мбайт (8%)
    Выравнивание                             : Разделение по промежуткам
    Продолжительность промежутка             : 40  мс. (1,00 видеокадр)
    Время предзагрузки промежутка            : 500  мс.
    Скриншоты:

    Дополнительные скриншоты:

    Рецензия:

    Спортивная драма
    Этот фильм Виктора Титова появился через шесть лет после схожей (во многом) спортивной ленты «Новенькая» Павла Любимова, содержа уже в сюжетной конструкции и даже в стилевом решении стремительный слом умонастроений в спорте и обществе. Казалось бы, всё та же чуть наивная история маленькой провинциальной девчушки: Таню Малышеву не замечают (в том числе — и объект её детской влюблённости) до тех пор, пока она не становится всемирной знаменитостью, выделывая немыслимые пируэты на спортивных снарядах (тут уж, вне всякого сомнения, имелась в виду Ольга Корбут). А в её соперничестве с другой гимнасткой Светланой Кропотовой нетрудно угадать спор за мировое лидерство с ранее блиставшей Людмилой Турищевой (кстати, юная Турищева с большими бантами в волосах как раз присутствовала в финале «Новенькой»).
    Но в середине 70-х, когда картина «Чудо с косичками» вышла на экран, режиссёрская манера её 35-летнего постановщика поневоле казалась излишне заострённой, чересчур увлечённой, в каком-то смысле одержимой. Хотя именно она определяла своеобразие почерка Виктора Титова в ранний период творчества — не только в блистательном телевизионном «Вальсе» (может, это самая лучшая его работа), но и в немножко «заказных» лентах «Каждый день доктора Калинниковой» и «Чудо с косичками», сделанных уже для показа в кинотеатрах.
    Однако некая подростковая нервозность в ожидании непременного и ошеломляющего успеха, простительная для девчонки, которая желает буквально из никого стать кем-то и даже символом своей эпохи, отразилась ещё и в рваной стилистике повествования (что усложнило прокатную судьбу фильма). И, так или иначе, оказалась пророческой не столько в отношении главного прототипа, сколько по поводу многих из тех, кто ринулся подражать Корбут. Женская гимнастика стала превращаться в детскую эквилибристику, что порой приводило к драматическим последствиям, как в случае с Еленой Мухиной. Но куда печальнее результаты того, что из спорта ушла душа, и вообще пропало озорство «чуда с косичками», а на первый план вышли круглые цифры премиальных и выгодные контракты на показательные турне после очередного чемпионата. Потом пришло время «куколок» (если воспользоваться названием фильма Исаака Фридберга), не лишённых хватки и цинизма.
    1998
    Скачать .torrent

    Скачать торрент-файл бесплатно и на максимальной скорости!

    Как скачивать? · Что такое торрент? · Рейтинг и ограничения

    !ВНИМАНИЕ!
    Сайт не распространяет и не хранит электронные версии произведений, а занимается лишь лишь предоставлением доступа к создаваемому пользователями каталогу ссылок на торрент-файлы, которые содержат только списки хеш-сумм, убедительная просьба с жалобами обращаться напрямую к пользователю. Файлы для обмена на трекере предоставлены пользователями сайта, и администрация не несёт ответственности за их содержание. Просьба не заливать файлы, защищенные авторскими правами, а также файлы нелегального содержания!


    _________________
    [Профиль] [ЛС]
    Показать сообщения:    
    Ответить на тему

    Текущее время: Сегодня, в 08:00

    Часовой пояс: GMT + 2



    Вы не можете начинать темы
    Вы не можете отвечать на сообщения
    Вы не можете редактировать свои сообщения
    Вы не можете удалять свои сообщения
    Вы не можете голосовать в опросах
    Вы не можете прикреплять файлы к сообщениям
    Вы не можете скачивать файлы