BitTorrentTracker PerecTracker.org
BitTorrentTracker PerecTracker.org
    
Регистрация  ·  Вход
 
 · 
Забыли пароль?

  • До встречи с тобой / Me Before You (Теа Шэррок / Thea Sharrock ) [2016, США, Великобритания, Драма, BDRip, HD (720p)] DUB + Original + sub (rus, eng, ukr)

    Ответить на тему
     
    Автор Сообщение

    rechyn

    Создавать темы 12-Окт-2016 03:35

           

    [Цитировать]

    До встречи с тобой / Me Before You
    -
    7.143 / 10 7.50 / 10
    -Год выпуска: 2016
    Страна: США, Великобритания
    Жанр: Драма
    Продолжительность: 01:50:14
    Перевод: Дублированный (Лицензия)
    Оригинальная аудиодорожка: Есть
    Cубтитры: Русские, Английские, Английские SDH, Украинские форсированные
    Режиссёр: Теа Шэррок
    Сценарий: Джоджо Мойес
    Продюсер: Элисон Оуэн, Карен Розенфельт, Сью Баден-Поуелл
    Оператор: Реми Адефаразин
    Композитор: Крэйг Армстронг
    Художник: Эндрю МакАлпайн, Ник Дент, Антуан Марон
    Монтаж: Джон Уилсон
    В ролях: Сэм Клафлин, Ванесса Кирби, Эмилия Кларк, Эйлин Данвуди, Пабло Рэйбоулд, Гэбриэлль Дауни, Генри Чарльз, Саманта Спиро, Брендан Койл, Дженна Коулман
    Бюджет: $20 000 000
    Сборы в США: $56 245 075
    Сборы в мире: + $150 500 000 = $206 745 075
    Сборы в России: $3 901 866
    Мировая премьера: 23 мая 2016
    Премьера (РФ): 7 июля 2016, «Каро-Премьер»
    Описание: Лу Кларк знает, сколько шагов от автобусной остановки до ее дома. Она знает, что ей очень нравится работа в кафе и что, скорее всего, она не любит своего бойфренда Патрика. Но Лу не знает, что вот-вот потеряет свою работу и что в ближайшем будущем ей понадобятся все силы, чтобы преодолеть свалившиеся на нее проблемы. Уилл Трейнор знает, что сбивший его мотоциклист отнял у него желание жить. И он точно знает, что надо сделать, чтобы положить конец всему этому. Но он не знает, что Лу скоро ворвется в его мир буйством красок. И они оба не знают, что навсегда изменят жизнь друг друга.-Качество исходника: Blu-Ray (HDCLub)
    Качество: BDRip
    Тип: HD (720p)
    Контейнер: M4V
    Видео: H.264, 1280x544, 2.35:1, 3 500 Kbps, 23.976 fps
    Аудио 1: Русский/Дублированный (Лицензия), AAC / 2.0 / 160 Kbps / 48.0 KHz
    Аудио 2: Английский/Оригинальная дорожка , AAC / 2.0 / 160 Kbps / 48.0 KHz
    Аудио 3: Украинский/Дублированный (iTunes), AAC / 2.0 / 160 Kbps / 48.0 KHz
    Аудио 4: Русский/Дублированный (Лицензия), AC-3 / 5.1 / 640 Kbps / 48.0 KHz
    Аудио 5: Английский/Оригинальная дорожка , AC-3 / 5.1 / 640 Kbps / 48.0 KHz
    Аудио 6: Украинский/Дублированный (iTunes), AC-3 / 5.1 / 384 Kbps / 48.0 KHz
    Субтитры 1: Русские полные
    Субтитры 2: Английские полные
    Субтитры 3: Английские SDH
    Субтитры 4: Украинские форсированные
    -

    iTunes Meta Tags

    Sort Name: Me Before You
    XID: Apple:vendor_id:2016-807318
    contentID: 1119695330
    Copyright: © 2016 Warner Bros. Entertainment Inc. and Metro-Goldwyn-Mayer Pictures Inc. Все права защищены.
    Screenwriters: Джоджо Мойес
    Producers: Элисон Оуэн, Карен Розенфельт, Сью Баден-Поуелл
    Director: Теа Шэррок
    Cast: Сэм Клафлин, Эмилия Кларк, Ванесса Кирби, Эйлин Данвуди, Пабло Рэйбоулд, Гэбриэлль Дауни, Генри Чарльз, Саманта Спиро, Брендан Койл, Дженна Коулман, Станислав Тикунов, Александра Курагина, Анастасия Лапина
    Studio: New Line
    Rating: 4
    Long Description: Лу Кларк знает, сколько шагов от автобусной остановки до ее дома. Она знает, что ей очень нравится работа в кафе и что, скорее всего, она не любит своего бойфренда Патрика. Но Лу не знает, что вот-вот потеряет свою работу и что в ближайшем будущем ей понадобятся все силы, чтобы преодолеть свалившиеся на нее проблемы.
    Уилл Трейнор знает, что сбивший его мотоциклист отнял у него желание жить. И он точно знает, что надо сделать, чтобы положить конец всему этому. Но он не знает, что Лу скоро ворвется в его мир буйством красок. И они оба не знают, что навсегда изменят жизнь друг друга.
    Description: Лу Кларк знает, сколько шагов от автобусной остановки до ее дома. Она знает, что ей очень нравится работа в кафе и что, скорее всего, она не любит своего бойфренда Патрика. Но Лу не знает, что вот-вот потеряет свою работу и что в ближайшем будущем ей понадобятся все силы, чтобы преодолеть свалившиеся на нее проблемы.
    Уилл Трейнор знает, что сбивший его мотоциклист отнял у него желание жить. И он точно знает, что надо сделать, чтобы положить конец всему этому. Но он не знает, что Лу скоро ворвется в его мир буйством красок. И они оба не знают, что навсегда изменят жизнь друг друга.
    Release Date: 2016-06-02T08:00:00Z
    Genre: Romance
    Artist: Thea Sharrock
    Name: Me Before You

    MediaInfo

    General
    Complete name : /Users/imac/HandBrake/Me Before You (720p HD).m4v
    Format : MPEG-4
    Codec ID : M4V
    File size : 4.34 GiB
    Duration : 1h 50mn
    Overall bit rate mode : Variable
    Overall bit rate : 5 642 Kbps
    Movie name : Me Before You
    Performer : Thea Sharrock
    Director : Теа Шэррок
    Actor : Сэм Клафлин / Эмилия Кларк / Ванесса Кирби / Эйлин Данвуди / Пабло Рэйбоулд / Гэбриэлль Дауни / Генри Чарльз / Саманта Спиро / Брендан Койл / Дженна Коулман / Станислав Тикунов / Александра Курагина / Анастасия Лапина
    Screenplay by : Джоджо Мойес
    Producer : Элисон Оуэн / Карен Розенфельт / Сью Баден-Поуелл
    Production studio : New Line
    Genre : Romance
    ContentType : Short Film
    Description : Лу Кларк знает, сколько шагов от автобусной остановки до ее дома. Она знает, что ей очень нравится работа в кафе и что, скорее всего, она не любит своего бойфренда Патрика. Но Лу не знает, что вот-вот потеряет свою работу и что в ближайшем будущем ей понадобятся все силы, чтобы преодолеть свалившиеся на нее проблемы. / Уилл Трейнор знает, что сбивший его мотоциклист отнял у него желание жить. И он точно знает, что надо сделать, чтобы положить конец всему этому. Но он не знает, что Лу скоро ворвется в его мир буйством красок. И они оба не знают, что навсегда изменят жизнь друг друга.
    Recorded date : UTC 2016-06-02 08:00:00
    Encoded date : UTC 2016-10-11 21:12:08
    Tagged date : UTC 2016-10-11 21:13:53
    Copyright : © 2016 Warner Bros. Entertainment Inc. and Metro-Goldwyn-Mayer Pictures Inc. Все права защищены.
    Cover : Yes
    Rating : None
    Title/Sort : Me Before You
    LongDescription : Лу Кларк знает, сколько шагов от автобусной остановки до ее дома. Она знает, что ей очень нравится работа в кафе и что, скорее всего, она не любит своего бойфренда Патрика. Но Лу не знает, что вот-вот потеряет свою работу и что в ближайшем будущем ей понадобятся все силы, чтобы преодолеть свалившиеся на нее проблемы. / Уилл Трейнор знает, что сбивший его мотоциклист отнял у него желание жить. И он точно знает, что надо сделать, чтобы положить конец всему этому. Но он не знает, что Лу скоро ворвется в его мир буйством красок. И они оба не знают, что навсегда изменят жизнь друг друга.
    HDVideo : Yes
    AppleStoreCatalogID : 1119695330
    Vendor : Apple:vendor_id:2016-807318
    ContentRating : mpaa|PG-13|300|
    Video #1
    ID : 1
    Format : AVC
    Format/Info : Advanced Video Codec
    Format profile : High@L3.1
    Format settings, CABAC : No
    Format settings, ReFrames : 3 frames
    Codec ID : avc1
    Codec ID/Info : Advanced Video Coding
    Duration : 1h 50mn
    Source duration : 1h 50mn
    Bit rate : 3 500 Kbps
    Width : 1 280 pixels
    Height : 544 pixels
    Display aspect ratio : 2.35:1
    Frame rate mode : Variable
    Frame rate : 23.976 fps
    Minimum frame rate : 23.810 fps
    Maximum frame rate : 24.272 fps
    Color space : YUV
    Chroma subsampling : 4:2:0
    Bit depth : 8 bits
    Scan type : Progressive
    Bits/(Pixel*Frame) : 0.210
    Stream size : 2.69 GiB (62%)
    Source stream size : 2.69 GiB (62%)
    Title : Main Program
    Writing library : x264 core 142 r2479 dd79a61
    Encoding settings : cabac=0 / ref=3 / deblock=1:-3:-3 / analyse=0x3:0x113 / me=umh / subme=9 / psy=1 / psy_rd=1.00:0.15 / mixed_ref=1 / me_range=32 / chroma_me=1 / trellis=0 / 8x8dct=1 / cqm=0 / deadzone=21,11 / fast_pskip=0 / chroma_qp_offset=-2 / threads=36 / lookahead_threads=3 / sliced_threads=0 / nr=0 / decimate=0 / interlaced=0 / bluray_compat=0 / constrained_intra=0 / bframes=3 / b_pyramid=0 / b_adapt=2 / b_bias=0 / direct=1 / weightb=0 / open_gop=0 / weightp=0 / keyint=240 / keyint_min=24 / scenecut=40 / intra_refresh=0 / rc_lookahead=40 / rc=2pass / mbtree=1 / bitrate=3500 / ratetol=1.0 / qcomp=0.65 / qpmin=0 / qpmax=69 / qpstep=4 / cplxblur=20.0 / qblur=0.5 / vbv_maxrate=9500 / vbv_bufsize=9500 / nal_hrd=none / filler=0 / ip_ratio=1.40 / aq=1:1.10
    Language : English
    Encoded date : UTC 2016-10-11 21:12:09
    Tagged date : UTC 2016-10-11 21:12:15
    Color range : Limited
    Color primaries : BT.709
    Transfer characteristics : BT.709
    Matrix coefficients : BT.709
    Video #2
    ID : 13
    Format : JPEG
    Codec ID : jpeg
    Duration : 1h 50mn
    Bit rate mode : Variable
    Bit rate : 665 bps
    Width : 640 pixels
    Height : 272 pixels
    Display aspect ratio : 2.35:1
    Frame rate mode : Variable
    Frame rate : 0.002 fps
    Minimum frame rate : 0.001 fps
    Maximum frame rate : 0.004 fps
    Color space : YUV
    Chroma subsampling : 4:2:0
    Bit depth : 8 bits
    Compression mode : Lossy
    Bits/(Pixel*Frame) : 1.910
    Stream size : 487 KiB (0%)
    Title : Chapter Images
    Language : English
    Encoded date : UTC 2016-10-11 21:12:59
    Tagged date : UTC 2016-10-11 21:12:59
    Audio #1
    ID : 2
    Format : AAC
    Format/Info : Advanced Audio Codec
    Format profile : LC
    Codec ID : 40
    Duration : 1h 50mn
    Bit rate mode : Variable
    Bit rate : 156 Kbps
    Maximum bit rate : 250 Kbps
    Channel(s) : 2 channels
    Channel positions : Front: L R
    Sampling rate : 48.0 KHz
    Compression mode : Lossy
    Stream size : 123 MiB (3%)
    Title : Russian Stereo
    Language : Russian
    Encoded date : UTC 2016-10-11 21:12:09
    Tagged date : UTC 2016-10-11 21:12:55
    Audio #2
    ID : 3
    Format : AAC
    Format/Info : Advanced Audio Codec
    Format profile : LC
    Codec ID : 40
    Duration : 1h 50mn
    Bit rate mode : Variable
    Bit rate : 156 Kbps
    Maximum bit rate : 251 Kbps
    Channel(s) : 2 channels
    Channel positions : Front: L R
    Sampling rate : 48.0 KHz
    Compression mode : Lossy
    Stream size : 123 MiB (3%)
    Title : English Stereo
    Language : English
    Encoded date : UTC 2016-10-11 21:12:09
    Tagged date : UTC 2016-10-11 21:12:55
    Audio #3
    ID : 4
    Format : AAC
    Format/Info : Advanced Audio Codec
    Format profile : LC
    Codec ID : 40
    Duration : 1h 50mn
    Bit rate mode : Variable
    Bit rate : 155 Kbps
    Maximum bit rate : 232 Kbps
    Channel(s) : 2 channels
    Channel positions : Front: L R
    Sampling rate : 48.0 KHz
    Compression mode : Lossy
    Stream size : 122 MiB (3%)
    Title : Ukrainian Stereo
    Language : Ukrainian
    Encoded date : UTC 2016-10-11 21:12:09
    Tagged date : UTC 2016-10-11 21:12:55
    Audio #4
    ID : 5
    Format : AC-3
    Format/Info : Audio Coding 3
    Mode extension : CM (complete main)
    Format settings, Endianness : Big
    Codec ID : ac-3
    Duration : 1h 50mn
    Bit rate mode : Constant
    Bit rate : 640 Kbps
    Channel(s) : 6 channels
    Channel positions : Front: L C R, Side: L R, LFE
    Sampling rate : 48.0 KHz
    Bit depth : 16 bits
    Compression mode : Lossy
    Stream size : 505 MiB (11%)
    Title : Russian DD 5.1
    Language : Russian
    Encoded date : UTC 2016-10-11 21:12:09
    Tagged date : UTC 2016-10-11 21:12:55
    Audio #5
    ID : 6
    Format : AC-3
    Format/Info : Audio Coding 3
    Mode extension : CM (complete main)
    Format settings, Endianness : Big
    Codec ID : ac-3
    Duration : 1h 50mn
    Bit rate mode : Constant
    Bit rate : 640 Kbps
    Channel(s) : 6 channels
    Channel positions : Front: L C R, Side: L R, LFE
    Sampling rate : 48.0 KHz
    Bit depth : 16 bits
    Compression mode : Lossy
    Stream size : 505 MiB (11%)
    Title : English DD 5.1
    Language : English
    Encoded date : UTC 2016-10-11 21:12:09
    Tagged date : UTC 2016-10-11 21:12:55
    Audio #6
    ID : 7
    Format : AC-3
    Format/Info : Audio Coding 3
    Mode extension : CM (complete main)
    Format settings, Endianness : Big
    Codec ID : ac-3
    Duration : 1h 50mn
    Bit rate mode : Constant
    Bit rate : 384 Kbps
    Channel(s) : 6 channels
    Channel positions : Front: L C R, Side: L R, LFE
    Sampling rate : 48.0 KHz
    Bit depth : 16 bits
    Compression mode : Lossy
    Stream size : 303 MiB (7%)
    Title : Ukrainian DD 5.1
    Language : Ukrainian
    Encoded date : UTC 2016-10-11 21:12:09
    Tagged date : UTC 2016-10-11 21:12:55
    Text #1
    ID : 8
    Format : Timed Text
    Muxing mode : sbtl
    Codec ID : tx3g
    Duration : 1h 45mn
    Bit rate mode : Variable
    Bit rate : 103 bps
    Stream size : 79.8 KiB (0%)
    Title : Russian full
    Language : Russian
    Encoded date : UTC 2016-10-11 21:12:09
    Tagged date : UTC 2016-10-11 21:12:54
    Text #2
    ID : 9
    Format : Timed Text
    Muxing mode : sbtl
    Codec ID : tx3g
    Duration : 1h 45mn
    Bit rate mode : Variable
    Bit rate : 74 bps
    Stream size : 57.3 KiB (0%)
    Title : English full
    Language : English
    Encoded date : UTC 2016-10-11 21:12:09
    Tagged date : UTC 2016-10-11 21:12:54
    Text #3
    ID : 10
    Format : Timed Text
    Muxing mode : sbtl
    Codec ID : tx3g
    Duration : 1h 45mn
    Bit rate mode : Variable
    Bit rate : 79 bps
    Stream size : 61.2 KiB (0%)
    Title : English SDH
    Language : English
    Encoded date : UTC 2016-10-11 21:12:09
    Tagged date : UTC 2016-10-11 21:12:54
    Text #4
    ID : 11
    Format : Timed Text
    Muxing mode : sbtl
    Codec ID : tx3g
    Duration : 1h 8mn
    Bit rate mode : Variable
    Bit rate : 2 bps
    Stream size : 1.25 KiB (0%)
    Title : Ukrainian forced
    Language : Ukrainian
    Encoded date : UTC 2016-10-11 21:12:09
    Tagged date : UTC 2016-10-11 21:12:39
    Menu #1
    00:00:00.000 : 1
    00:12:40.969 : 2
    00:20:01.575 : 3
    00:29:06.244 : 4
    00:39:38.418 : 5
    00:49:13.868 : 6
    01:01:15.547 : 7
    01:10:16.796 : 8
    01:19:16.418 : 9
    01:32:06.479 : 10
    01:37:58.331 : 11
    01:45:55.349 : 12
    Menu #2
    ID : 12
    Codec ID : text
    Duration : 1h 50mn
    Language : English
    Encoded date : UTC 2016-10-11 21:12:55
    Tagged date : UTC 2016-10-11 21:12:55
    00:00:00.000 : 1
    00:12:40.969 : 2
    00:20:01.575 : 3
    00:29:06.244 : 4
    00:39:38.418 : 5
    00:49:13.868 : 6
    01:01:15.547 : 7
    01:10:16.796 : 8
    01:19:16.418 : 9
    01:32:06.479 : 10
    01:37:58.331 : 11
    01:45:55.349 : 12
    Bit rate mode : VBR

    x264 лог

    x264 [info]: frame I:1560  Avg QP:15.13  size:119597
    x264 [info]: frame P:54689 Avg QP:17.45  size: 36632
    x264 [info]: frame B:102341 Avg QP:19.32  size:  6868
    x264 [info]: consecutive B-frames:  3.1% 28.0% 13.3% 55.6%
    x264 [info]: mb I  I16..4:  6.1% 60.3% 33.6%
    x264 [info]: mb P  I16..4:  0.7%  2.6%  1.3%  P16..4: 47.2% 29.4% 13.6%  0.0%  0.0%    skip: 5.0%
    x264 [info]: mb B  I16..4:  0.1%  0.2%  0.1%  B16..8: 46.8%  9.8%  1.6%  direct: 2.8%  skip:38.6%  L0:39.7% L1:53.4% BI: 6.8%
    x264 [info]: 8x8 transform intra:57.6% inter:42.7%
    x264 [info]: coded y,uvDC,uvAC intra: 86.9% 84.6% 70.6% inter: 25.7% 21.4% 14.9%
    x264 [info]: i16 v,h,dc,p: 53% 13%  7% 27%
    x264 [info]: i8 v,h,dc,ddl,ddr,vr,hd,vl,hu: 11%  9%  6% 10% 14% 14% 13% 11% 11%
    x264 [info]: i4 v,h,dc,ddl,ddr,vr,hd,vl,hu: 11%  9%  3% 12% 16% 15% 14% 11% 10%
    x264 [info]: i8c dc,h,v,p: 51% 16% 21% 11%
    x264 [info]: ref P L0: 72.9% 16.0% 11.1%
    x264 [info]: ref B L0: 79.3% 20.7%
    x264 [info]: kb/s:3498.77

    Скриншоты

    -

    Релиз подготовлен для просмотра на Apple TV, iPad, iPhone, iPod Touch.
    Для просмотра данного релиза на компьютере с ОС Windows рекомендуется использовать VLC media player
    Скачать .torrent

    Скачать торрент-файл бесплатно и на максимальной скорости!

    Как скачивать? · Что такое торрент? · Рейтинг и ограничения

    !ВНИМАНИЕ!
    Сайт не распространяет и не хранит электронные версии произведений, а занимается лишь лишь предоставлением доступа к создаваемому пользователями каталогу ссылок на торрент-файлы, которые содержат только списки хеш-сумм, убедительная просьба с жалобами обращаться напрямую к пользователю. Файлы для обмена на трекере предоставлены пользователями сайта, и администрация не несёт ответственности за их содержание. Просьба не заливать файлы, защищенные авторскими правами, а также файлы нелегального содержания!


    _________________
    [Профиль] [ЛС]
    Показать сообщения:    
    Ответить на тему

    Текущее время: Сегодня, в 18:34

    Часовой пояс: GMT + 2



    Вы не можете начинать темы
    Вы не можете отвечать на сообщения
    Вы не можете редактировать свои сообщения
    Вы не можете удалять свои сообщения
    Вы не можете голосовать в опросах
    Вы не можете прикреплять файлы к сообщениям
    Вы не можете скачивать файлы