BitTorrentTracker PerecTracker.org
BitTorrentTracker PerecTracker.org
    
Регистрация  ·  Вход
 
 · 
Забыли пароль?

  • Сияние Тени / Let It Shine (Пол Хоэн / Paul Hoen) [2012, США, комедия, семейный, музыка, DVB] Dub (Канал Disney)

    Ответить на тему
     
    Автор Сообщение

    Light

    Создавать темы 11-Окт-2016 23:25

           

    [Цитировать]

    Сияние Тени / Let It Shine--Страна: США
    Жанр: комедия, семейный, музыка
    Год выпуска: 2012
    Продолжительность: 01:37:00-Перевод: Профессиональный (дублированный) Канал Disney
    Cубтитры: нет
    Оригинальная аудиодорожка: нет-Режиссер: Пол Хоэн / Paul Hoen-В ролях: Тайлер Джеймс Уильямс, Коко Джонс, Тревор Джексон, Брэндон Смит, Доун Льюис, Алекс Десерт, Николь Салливан, Кортни Б. Вэнс, Жасмин Бурк, Тамара Ариас-Описание: История развивается в Атланте, штат Джорджия, когда Сайрус Дебарг, сын пастора, и его лучший друг Крис МакДаффи воссоединяются с подругой детства, музыкальной подростковой сенсацией Роксаной «Рокси» Эндрюс, чья музыкальная студия спонсирует конкурс написания песни в подростковом клубе. Сайрус, застенчивый помощник официанта и руководитель молодежного хора, также пишущий песни в стиле рэп под именем «Пророк», создает душещипательную и побеждающую в конкурсе ритмичную композицию «Не убегай», посвященную Рокси, но Рокси ошибочно полагает, что автором песни является Крис. Зная, что Крису интересна Рокси, Сайрус остается в стороне пока Крис не только присваивает себе успех песни, но и в конце концов начинает завоевывать сердце Рокси.-Сэмпл: Скачать-Качество видео: DVB
    Формат видео: TS-Видео: 720x576 (16:9) @ 1024x576, 25.000 fps, MPEG-2 Video, ~3143 Kbps, 0.303 bits/pixel
    Аудио: 48.0 KHz, MPEG-1 Audio layer 2, 2 ch, 192 Kbps-

    MediaInfo

    Complete name : F:\Let.It.Shine.2012.Dub.DVB.ts
    Format : MPEG-TS
    File size : 2.38 GiB
    Duration : 1 h 37 min
    Overall bit rate mode : Variable
    Overall bit rate : 3 510 kb/s
    Maximum Overall bit rate : 35.5 Mb/s
    Video
    ID : 4113 (0x1011)
    Menu ID : 1 (0x1)
    Format : MPEG Video
    Format version : Version 2
    Format profile : Main@Main
    Format settings, BVOP : Yes
    Format settings, Matrix : Custom
    Format settings, GOP : Variable
    Format settings, picture st : Frame
    Codec ID : 2
    Duration : 1 h 37 min
    Bit rate mode : Variable
    Bit rate : 3 143 kb/s
    Maximum bit rate : 3 350 kb/s
    Width : 720 pixels
    Height : 576 pixels
    Display aspect ratio : 16:9
    Active Format Description : Letterbox 16:9 image (top)
    Frame rate : 25.000 FPS
    Standard : PAL
    Color space : YUV
    Chroma subsampling : 4:2:0
    Bit depth : 8 bits
    Scan type : Interlaced
    Scan order : Top Field First
    Compression mode : Lossy
    Bits/(Pixel*Frame) : 0.303
    Time code of first frame : 00:00:00:00
    Time code source : Group of pictures header
    GOP, Open/Closed : Open
    Stream size : 2.13 GiB (90%)
    Audio
    ID : 4352 (0x1100)
    Menu ID : 1 (0x1)
    Format : MPEG Audio
    Format version : Version 1
    Format profile : Layer 2
    Mode : Joint stereo
    Mode extension : Intensity Stereo + MS Stereo
    Codec ID : 4
    Duration : 1 h 37 min
    Bit rate mode : Constant
    Bit rate : 192 kb/s
    Channel(s) : 2 channels
    Sampling rate : 48.0 kHz
    Compression mode : Lossy
    Delay relative to video : 23 ms
    Stream size : 133 MiB (5%)
    Language : Russian

    Скриншот c названием фильма

    Скриншоты

    Скачать .torrent

    Скачать торрент-файл бесплатно и на максимальной скорости!

    Как скачивать? · Что такое торрент? · Рейтинг и ограничения

    !ВНИМАНИЕ!
    Сайт не распространяет и не хранит электронные версии произведений, а занимается лишь лишь предоставлением доступа к создаваемому пользователями каталогу ссылок на торрент-файлы, которые содержат только списки хеш-сумм, убедительная просьба с жалобами обращаться напрямую к пользователю. Файлы для обмена на трекере предоставлены пользователями сайта, и администрация не несёт ответственности за их содержание. Просьба не заливать файлы, защищенные авторскими правами, а также файлы нелегального содержания!


    _________________
    [Профиль] [ЛС]
    Показать сообщения:    
    Ответить на тему

    Текущее время: Сегодня, в 17:23

    Часовой пояс: GMT + 2



    Вы не можете начинать темы
    Вы не можете отвечать на сообщения
    Вы не можете редактировать свои сообщения
    Вы не можете удалять свои сообщения
    Вы не можете голосовать в опросах
    Вы не можете прикреплять файлы к сообщениям
    Вы не можете скачивать файлы