BitTorrentTracker PerecTracker.org
BitTorrentTracker PerecTracker.org
    
Регистрация  ·  Вход
 
 · 
Забыли пароль?

  • Запретное удовольствие / Zakazane uvolneni (Ян Гржебейк / Jan Hrebejk) [2014, Чехия, комедия, мелодрама, DVDRip] VO (Kass) + Original Cze

    Ответить на тему
     
    Автор Сообщение

    Light

    Создавать темы 11-Окт-2016 19:15

           

    [Цитировать]

    Запретное удовольствие / Zakázané uvolněníСтрана: Чехия
    Жанр: комедия, мелодрама
    Год выпуска: 2014
    Продолжительность: 01:17:43
    Перевод: Одноголосый закадровый - Kass
    Cубтитры: нет
    Оригинальная аудиодорожка: чешская
    Режиссер: Ян Гржебейк / Jan Hrebejk
    В ролях: Зузана Ставна, Яна Стрыкова, Хана Вагнерова, Ондрей Сокол, Igor Orozovic, Томаш Жерабек, Норберт Лихий, Даниэль Шпинар, Каролина Блажкова, Вацлав Эрбен.
    Описание: Безобидный обычай похищения невесты по капризу судьбы превращается в нечто несусветное.
    Захолустная пивная пуста — идет чемпионат по хоккею, а телевизор неисправен. К тому же разражается страшная гроза, отрезая от мира невесту, свидетеля жениха и бармена. Все эти трое — женского пола, что само по себе любопытно. К их услугам целый бар спиртного, а спиртное, как известно, развязывает язык и не только.

    Доп. информация: Исходник - DVD5 - позаимствован из раздачи Dr.Crane
    За перевод, озвучание и предоставление вышеупомянутого DVD благодарность адресуется Kass
    Конвертация в DVDRip - Arle-kino

    Качество видео: DVDRip
    Формат видео: AVI
    Видео: 720x304 (2.37:1), 25 fps, XviD MPEG-4 ~1835 kbps avg, 0.34 bit/pixel
    Аудио 1: 48 kHz, AC3 Dolby Digital, 3/2 (L,C,R,l,r) + LFE ch, ~448 kbps - Rus
    Аудио 2: 48 kHz, AC3 Dolby Digital, 3/2 (L,C,R,l,r) + LFE ch, ~384 kbps - Cze

    MediaInfo

    General
    Complete name : D:\Public\Zakazane.uvolneni.2014.DVDRip.Rus.Cze.avi
    Format : AVI
    Format/Info : Audio Video Interleave
    File size : 1.46 GiB
    Duration : 1h 17mn
    Overall bit rate : 2 683 Kbps
    Writing application : VirtualDubMod 1.5.10.2 (build 2540/release)
    Writing library : VirtualDubMod build 2540/release
    Video
    ID : 0
    Format : MPEG-4 Visual
    Format profile : Advanced Simple@L5
    Format settings, BVOP : 1
    Format settings, QPel : No
    Format settings, GMC : No warppoints
    Format settings, Matrix : Default (MPEG)
    Codec ID : XVID
    Codec ID/Hint : XviD
    Duration : 1h 17mn
    Bit rate : 1 837 Kbps
    Width : 720 pixels
    Height : 304 pixels
    Display aspect ratio : 2.35:1
    Frame rate : 25.000 fps
    Color space : YUV
    Chroma subsampling : 4:2:0
    Bit depth : 8 bits
    Scan type : Progressive
    Compression mode : Lossy
    Bits/(Pixel*Frame) : 0.336
    Stream size : 1 021 MiB (68%)
    Writing library : XviD 1.2.1 (UTC 2008-12-04)
    Audio #1
    ID : 1
    Format : AC-3
    Format/Info : Audio Coding 3
    Mode extension : CM (complete main)
    Codec ID : 2000
    Duration : 1h 17mn
    Bit rate mode : Constant
    Bit rate : 448 Kbps
    Channel(s) : 6 channels
    Channel positions : Front: L C R, Side: L R, LFE
    Sampling rate : 48.0 KHz
    Bit depth : 16 bits
    Compression mode : Lossy
    Stream size : 249 MiB (17%)
    Alignment : Split accross interleaves
    Interleave, duration : 40 ms (1.00 video frame)
    Interleave, preload duration : 500 ms
    Title : Rus
    Audio #2
    ID : 2
    Format : AC-3
    Format/Info : Audio Coding 3
    Mode extension : CM (complete main)
    Codec ID : 2000
    Duration : 1h 17mn
    Bit rate mode : Constant
    Bit rate : 384 Kbps
    Channel(s) : 6 channels
    Channel positions : Front: L C R, Side: L R, LFE
    Sampling rate : 48.0 KHz
    Bit depth : 16 bits
    Compression mode : Lossy
    Stream size : 213 MiB (14%)
    Alignment : Split accross interleaves
    Interleave, duration : 40 ms (1.00 video frame)
    Interleave, preload duration : 500 ms
    Title : Cze

    Скриншот c названием фильма

    Скриншоты

    Скачать .torrent

    Скачать торрент-файл бесплатно и на максимальной скорости!

    Как скачивать? · Что такое торрент? · Рейтинг и ограничения

    !ВНИМАНИЕ!
    Сайт не распространяет и не хранит электронные версии произведений, а занимается лишь лишь предоставлением доступа к создаваемому пользователями каталогу ссылок на торрент-файлы, которые содержат только списки хеш-сумм, убедительная просьба с жалобами обращаться напрямую к пользователю. Файлы для обмена на трекере предоставлены пользователями сайта, и администрация не несёт ответственности за их содержание. Просьба не заливать файлы, защищенные авторскими правами, а также файлы нелегального содержания!


    _________________
    [Профиль] [ЛС]
    Показать сообщения:    
    Ответить на тему

    Текущее время: Сегодня, в 00:16

    Часовой пояс: GMT + 2



    Вы не можете начинать темы
    Вы не можете отвечать на сообщения
    Вы не можете редактировать свои сообщения
    Вы не можете удалять свои сообщения
    Вы не можете голосовать в опросах
    Вы не можете прикреплять файлы к сообщениям
    Вы не можете скачивать файлы