Register  ·  Log in
Forgot password?

  • Над темной водой (Дмитрий Месхиев) [1993, драма, DVB, AVC]

    Reply to topic
    Author Message


    Post 11-Oct-2016 16:05



    Над темной водой
    Жанр: драма
    Год выпуска: 1993
    Продолжительность: 01:34:16
    Режиссёр: Дмитрий Месхиев
    В ролях: Александр Абдулов, Ксения Качалина, Юрий Кузнецов, Татьяна Лютаева, Владимир Ильин, Иван Охлобыстин, Александр Баширов, Сергей Курехин
    Описание: Ленинград, 60-е годы, белые ночи. Прогуливаясь по набережным Невы, обаятельная провинциалка встретила поэта, художника и кинооператора. И каждый из троих предложил ей выйти замуж...
    Доп. информация: Запись потока *.ts со спутника EUTELSAT 36A/B, 36° в.д., ремукс в *.mkv программой VideoReDo.
    Качество видео: DVB
    Формат видео: MKV
    Видео: Advanced Video Codec, 720(768)x576 (4:3), 25,000 кадров/сек, 1 920 Кбит/сек
    Аудио: MPEG Audio, 48,0 КГц, 192 Кбит/сек, 2 канала


    Unique ID : 35143359376935500943075640255755021331 (0x1A705D64A648B2597D922F475FDB6C13)
    Complete name : D:\Torrent\НАД ТЁМНОЙ ВОДОЙ (РОДНОЕ КИНО).mkv
    Format : Matroska
    Format version : Version 2
    File size : 1.42 GiB
    Duration : 1h 34mn
    Overall bit rate : 2 155 Kbps
    Writing application : Lavf52.64.2
    Writing library : Lavf52.64.2
    ID : 1
    Format : AVC
    Format/Info : Advanced Video Codec
    Format profile : High@L3.0
    Format settings, CABAC : Yes
    Format settings, ReFrames : 4 frames
    Codec ID : V_MPEG4/ISO/AVC
    Duration : 1h 34mn
    Bit rate : 1 920 Kbps
    Width : 720 pixels
    Height : 576 pixels
    Display aspect ratio : 4:3
    Original display aspect ratio : 4:3
    Frame rate : 25.000 fps
    Standard : PAL
    Color space : YUV
    Chroma subsampling : 4:2:0
    Bit depth : 8 bits
    Scan type : Interlaced
    Scan order : Top Field First
    Bits/(Pixel*Frame) : 0.185
    Stream size : 1.26 GiB (89%)
    Default : Yes
    Forced : No
    Color primaries : BT.470-6 System B, BT.470-6 System G, BT.601-6 625, BT.1358 625, BT.1700 625 PAL, BT.1700 625 SECAM
    Transfer characteristics : BT.470-6 System B, BT.470-6 System G
    Matrix coefficients : BT.470-6 System B, BT.470-6 System G, BT.601-6 625, BT.1358 625, BT.1700 625 PAL, BT.1700 625 SECAM, IEC 61966-2-4 601
    ID : 2
    Format : MPEG Audio
    Format version : Version 1
    Format profile : Layer 2
    Codec ID : A_MPEG/L2
    Codec ID/Hint : MP2
    Duration : 1h 34mn
    Bit rate mode : Constant
    Bit rate : 192 Kbps
    Channel(s) : 2 channels
    Sampling rate : 48.0 KHz
    Compression mode : Lossy
    Stream size : 129 MiB (9%)
    Language : Russian
    Default : Yes
    Forced : No

    Скриншот c названием фильма


    Download .torrent

    Download free and at maximum speed!

    How to Download? · What is a torrent? · Ratings and Limitations

    The site does not extend and does not store electronic(digital) versions of products, and only gives access to a reference catalogue created by users on torrent-files which contain only lists of the hash-sums, the earnest entreaty, with complaints(abuse) to access directly to the user. Files for an exchange on tracker are given by users of a site, and the administration does not bear the responsibility for their maintenance. The request to not fill in the files protected by copyrights, and also files of the illegal maintenance!

    [Profile] [PM]
    Display posts from previous:    
    Reply to topic

    The time now is: Today 01:26

    All times are GMT + 3 Hours

    You cannot post new topics in this forum
    You cannot reply to topics in this forum
    You cannot edit your posts in this forum
    You cannot delete your posts in this forum
    You cannot vote in polls in this forum
    You cannot attach files in this forum
    You cannot download files in this forum