BitTorrentTracker PerecTracker.org
BitTorrentTracker PerecTracker.org
    
Регистрация  ·  Вход
 
 · 
Забыли пароль?

  • Запрет на детей / Interdits d\'enfants (Жак Ренар / Jacques Renard) [2012, Франция, драма, экранизация, DVB] Original (Fre) + Sub (rus)

    Ответить на тему
     
    Автор Сообщение

    Light

    Создавать темы 11-Окт-2016 15:05

           

    [Цитировать]

    Запрет на детей
    Interdits d'enfants-Страна: Франция
    Жанр: драма, экранизация
    Год выпуска: 2012
    Продолжительность: 01:32:30
    Перевод: Субтитры (перевод О.Першиной, Éclair Group)
    Cубтитры: русские, английские, французские, немецкие, нидерландские
    Оригинальная аудиодорожка: французский
    Режиссер: Жак Ренар / Jacques RenardВ ролях: Агата Дронн / Agathe Dronne (Elodie), Пьер Кассиньяр / Pierre Cassignard (Antoine), Кристиана Рорато / Christiane Rorato (Sofia), Софи-Шарлотт Юссон / Sophie-Charlotte Husson (la juge)
    Описание: По документальной книге Сильви и Доминика Меннессон / Sylvie et Dominique Mennesson "Запрет на детей: свидетельства родителей, использовавших суррогатную мать / Interdits d'enfants: le témoignage unique de parents ayant eu recours à une mère porteuse" (2006).
    Фильм снят по реальным событиям. Элоди и Антуан живут в браке вот уже несколько лет, но из-за синдрома MRKH (атрофии детородных органов) женщина не может забеременеть. Страстно желая иметь детей, пара решает использовать суррогатную мать в Калифорнии, где это разрешено законом. Но по возвращению на родину с двумя очаровательными девочками-близнецами семья сталкивается с французским правосудием, которое не признает происхождение детей…
    Доп. информация: Hot Bird (13.0°E) TV5MONDE Europe DVB-S

    Качество видео: DVB
    Формат видео: MKV
    Видео: MPEG Video 2, 720x576@1024x576 (16:9), 25 fps, ~2898 kbps avg, 0.280 bit/pixel
    Аудио: MPEG Audio 2, 2 ch, 48 kHz, 192 kbps - французский
    Формат субтитров: softsub (SRT)

    Пример субтитров

    100:00:05,887 --> 00:00:08,049Елисейские полясверкают огнями.
    200:00:08,049 --> 00:00:11,049Сотни туристов...
    300:00:13,566 --> 00:00:15,696Спасибо.До свидания, мсье.
    400:00:15,696 --> 00:00:18,696ЗАПРЕТ НА ДЕТЕЙ
    500:00:35,166 --> 00:00:38,050Элоди...
    600:00:38,050 --> 00:00:41,050Моя мелодия,я хочу тебя о чем-то попросить.
    700:00:43,609 --> 00:00:46,609Через неделю Рождество.
    800:00:48,645 --> 00:00:51,645Хочу, чтобы вокруг насзвучали новые мелодии.
    900:00:52,530 --> 00:00:54,006Такие...
    1000:00:54,006 --> 00:00:57,006маленькие мелодии,которые будут расти.
    1100:00:59,567 --> 00:01:02,567Ты хочешь ребенка?
    1200:01:02,737 --> 00:01:04,051Да.
    1300:01:04,051 --> 00:01:06,049С тобой.
    1400:01:06,049 --> 00:01:08,564Да!
    1500:01:08,564 --> 00:01:11,564Да...
    1600:01:51,249 --> 00:01:53,407Прибыл самолет А6035
    1700:01:53,407 --> 00:01:56,407из Сан-Диего. Встречающие,пройдите к выходу 23.
    1800:02:11,851 --> 00:02:13,806Здравствуй, папа.
    1900:02:13,806 --> 00:02:16,806Антуан, сынок!
    2000:02:16,852 --> 00:02:18,364Эдмон!

    MediaInfo

    GeneralUnique ID : 174306609479915734714288714273452788972 (0x83223B5BD86613FEACF4D6E215650CEC)Complete name : [apreder]Interdits_d'enfants(2012)DVB.mkvFormat : MatroskaFormat version : Version 2File size : 2.04 GiBDuration : 1 h 32 minOverall bit rate : 3 153 kb/sMovie name : Interdits d'enfantsReleased date : 2013-01-09Encoded date : UTC 2016-10-11 10:53:42Writing application : mkvmerge v9.4.2 ('So High') 64bitWriting library : libebml v1.3.4 + libmatroska v1.4.5Cover : YesAttachments : cover.jpg / small_cover.jpgACTOR : Agathe Dronne, Pierre CassignardDIRECTOR : Jacques RenardGENRE : DramaIMDB : tt2651064KEYWORDS : perectracker.orgLAW_RATING : 16+
    VideoID : 1Format : MPEG VideoFormat version : Version 2Format profile : Main@MainFormat settings, BVOP : YesFormat settings, Matrix : CustomFormat settings, GOP : VariableFormat settings, picture structure : FrameCodec ID : V_MPEG2Codec ID/Info : MPEG 1 or 2 VideoDuration : 1 h 32 minBit rate : 2 898 kb/sMaximum bit rate : 3 200 kb/sWidth : 720 pixelsHeight : 576 pixelsDisplay aspect ratio : 16:9Frame rate mode : ConstantFrame rate : 25.000 FPSStandard : PALColor space : YUVChroma subsampling : 4:2:0Bit depth : 8 bitsScan type : InterlacedScan order : Top Field FirstCompression mode : LossyBits/(Pixel*Frame) : 0.280Stream size : 1.87 GiB (92%)Default : YesForced : No
    AudioID : 2Format : MPEG AudioFormat version : Version 1Format profile : Layer 2Codec ID : A_MPEG/L2Codec ID/Hint : MP2Duration : 1 h 32 minBit rate mode : ConstantBit rate : 192 kb/sChannel(s) : 2 channelsSampling rate : 48.0 kHzCompression mode : LossyStream size : 127 MiB (6%)Language : FrenchDefault : YesForced : No
    Text #1ID : 3Format : UTF-8Codec ID : S_TEXT/UTF8Codec ID/Info : UTF-8 Plain TextLanguage : RussianDefault : NoForced : No
    Text #2ID : 4Format : UTF-8Codec ID : S_TEXT/UTF8Codec ID/Info : UTF-8 Plain TextLanguage : EnglishDefault : NoForced : No
    Text #3ID : 5Format : UTF-8Codec ID : S_TEXT/UTF8Codec ID/Info : UTF-8 Plain TextLanguage : FrenchDefault : NoForced : No
    Text #4ID : 6Format : UTF-8Codec ID : S_TEXT/UTF8Codec ID/Info : UTF-8 Plain TextLanguage : GermanDefault : NoForced : No
    Text #5ID : 7Format : UTF-8Codec ID : S_TEXT/UTF8Codec ID/Info : UTF-8 Plain TextLanguage : DutchDefault : NoForced : No

    Скриншот c названием фильма

    Скриншоты

    Резервные скриншоты


    -
    Скачать .torrent

    Скачать торрент-файл бесплатно и на максимальной скорости!

    Как скачивать? · Что такое торрент? · Рейтинг и ограничения

    !ВНИМАНИЕ!
    Сайт не распространяет и не хранит электронные версии произведений, а занимается лишь лишь предоставлением доступа к создаваемому пользователями каталогу ссылок на торрент-файлы, которые содержат только списки хеш-сумм, убедительная просьба с жалобами обращаться напрямую к пользователю. Файлы для обмена на трекере предоставлены пользователями сайта, и администрация не несёт ответственности за их содержание. Просьба не заливать файлы, защищенные авторскими правами, а также файлы нелегального содержания!


    _________________
    [Профиль] [ЛС]
    Показать сообщения:    
    Ответить на тему

    Текущее время: Сегодня, в 00:28

    Часовой пояс: GMT + 2



    Вы не можете начинать темы
    Вы не можете отвечать на сообщения
    Вы не можете редактировать свои сообщения
    Вы не можете удалять свои сообщения
    Вы не можете голосовать в опросах
    Вы не можете прикреплять файлы к сообщениям
    Вы не можете скачивать файлы