BitTorrentTracker PerecTracker.org
BitTorrentTracker PerecTracker.org
    
Регистрация  ·  Вход
 
 · 
Забыли пароль?

  • Забудь и вспомни / Серии: 1-12 из 12 (Максим Мехеда) [2016, триллер, мелодрама, WEBRip (1080p)]

    Ответить на тему
     
    Автор Сообщение

    rechyn

    Создавать темы 11-Окт-2016 14:40

           

    [Цитировать]

    Забудь и вспомни--Год выпуска: 2016
    Производство: "FILM.UA Group"
    Жанр: триллер, мелодрама
    Продолжительность: 00:45:00
    Субтитры: нет-Режиссёр: Максим Мехеда-В ролях:
    Александр Кобзарь, Анна Васильева, Антон Соколов (II), Александр Гетьманский, Анна Кошмал, Татьяна Лялина, Ксения Годунова, Марк Дробот, Андрей Мостренко, Ирина Мак, Михаил Досенко, Яков Кучеревский, Игорь Рубашкин, Оксана Жданова, Екатерина Шоломицкая-Описание:
    Состоятельный жених, безупречные манеры, красивые ухаживания, пышная свадьба… Казалось бы, предел мечтаний многих девушек, не говоря уже о 17-летней воспитаннице детского дома Наташе. Но что скрывается за фасадом красивой жизни? Обнаружив дневник своей предшественницы, погибшей при странных обстоятельствах первой супруги бизнесмена и политика Леонида Мазова, Наташа понимает: бесследно исчезнуть – её единственный шанс сохранить жизнь. И девушка инсценирует собственную смерть. Однако спустя 7 лет прошлое находит её.....-Все раздачи сериала-Возраст: 16+-Качество: WEBRip (1080p)
    Формат: MKV
    Видео кодек: AVC
    Аудио кодек: AC3

    Видео: AVC, 1920 х 1080 (16:9), 25,000 кадр/сек, 2 989 Кбит/сек, 0.058 bit/pixel
    Аудио: AC3, 44100 Hz, 192 Kbps, 2 канала
    -

    MediaInfo

    General
    Unique ID : 229277983320238474702765207009728807626 (0xAC7D5557820DB937A5FC7B6740FE42CA)
    Complete name : D:\Раздачи\Забудь и вспомни (1-12 серии из 12) WEB-DL (1080p)\Zabud.i.vspomni.(02.seriya.iz.12).2016.WEB-DL.(1080p).Nikolspup.mkv
    Format : Matroska
    Format version : Version 2
    File size : 1.00 GiB
    Duration : 44mn 18s
    Overall bit rate : 3 245 Kbps
    Movie name : Zabud.i.vspomni.(02.seriya.iz.12).2016.WEB-DL.(1080p) @ release by Nikolspup
    Encoded date : UTC 2016-05-28 16:03:33
    Writing application : mkvmerge v5.8.0 ('No Sleep / Pillow') built on Sep 2 2012 15:37:04
    Writing library : libebml v1.2.3 + libmatroska v1.3.0
    Video
    ID : 1
    Format : AVC
    Format/Info : Advanced Video Codec
    Format profile : High@L4
    Format settings, CABAC : Yes
    Format settings, ReFrames : 2 frames
    Codec ID : V_MPEG4/ISO/AVC
    Duration : 44mn 18s
    Bit rate : 2 989 Kbps
    Width : 1 920 pixels
    Height : 1 080 pixels
    Display aspect ratio : 16:9
    Frame rate mode : Constant
    Frame rate : 25.000 fps
    Color space : YUV
    Chroma subsampling : 4:2:0
    Bit depth : 8 bits
    Scan type : Progressive
    Bits/(Pixel*Frame) : 0.058
    Stream size : 947 MiB (92%)
    Default : No
    Forced : No
    Color range : Limited
    Color primaries : BT.709
    Transfer characteristics : BT.709
    Matrix coefficients : BT.709
    Audio
    ID : 2
    Format : AC-3
    Format/Info : Audio Coding 3
    Mode extension : CM (complete main)
    Format settings, Endianness : Big
    Codec ID : A_AC3
    Duration : 44mn 18s
    Bit rate mode : Constant
    Bit rate : 192 Kbps
    Channel(s) : 2 channels
    Channel positions : Front: L R
    Sampling rate : 48.0 KHz
    Frame rate : 31.250 fps (1536 spf)
    Compression mode : Lossy
    Stream size : 60.9 MiB (6%)
    Language : Russian
    Default : Yes
    Forced : Yes
    -

    Скриншоты сериала


    -Раздаю до первых 5-ти скачавших, на раздачи не возвращаюсь...-
    Скачать .torrent

    Скачать торрент-файл бесплатно и на максимальной скорости!

    Как скачивать? · Что такое торрент? · Рейтинг и ограничения

    !ВНИМАНИЕ!
    Сайт не распространяет и не хранит электронные версии произведений, а занимается лишь лишь предоставлением доступа к создаваемому пользователями каталогу ссылок на торрент-файлы, которые содержат только списки хеш-сумм, убедительная просьба с жалобами обращаться напрямую к пользователю. Файлы для обмена на трекере предоставлены пользователями сайта, и администрация не несёт ответственности за их содержание. Просьба не заливать файлы, защищенные авторскими правами, а также файлы нелегального содержания!


    _________________
    [Профиль] [ЛС]
    Показать сообщения:    
    Ответить на тему

    Текущее время: Сегодня, в 20:08

    Часовой пояс: GMT + 2



    Вы не можете начинать темы
    Вы не можете отвечать на сообщения
    Вы не можете редактировать свои сообщения
    Вы не можете удалять свои сообщения
    Вы не можете голосовать в опросах
    Вы не можете прикреплять файлы к сообщениям
    Вы не можете скачивать файлы