BitTorrentTracker PerecTracker.org
BitTorrentTracker PerecTracker.org
    
Регистрация  ·  Вход
 
 · 
Забыли пароль?

  • Женщина его мечты / Серии: 1-4 из 4 (Ашот Кещян) [2016, Лирическая комедия, WEBRip]

    Ответить на тему
     
    Автор Сообщение

    rechyn

    Создавать темы 11-Окт-2016 14:37

           

    [Цитировать]

    Женщина его мечты
    Год выпуска: 2016
    Производство: Энерджи Фильм Продакшен
    Жанр: Лирическая комедия
    Продолжительность: 00:45:00
    Субтитры: Нет
    Режиссёр: Ашот Кещян
    В ролях: Фатима Горбенко, Елена Муравьёва, Юлия Зимина, Юрий Батурин, Константин Соловьёв, Митя Лабуш, Михаил Дорожкин, Леонид Громов, Нина Касторф, Сергей Булин, Фёдор Гуринец, Алексей Смолка, Татьяна Юрикова, Евгений Паперный, Артём Мартынишин, Андрей Лелюх, Антонина Макарчук, Светлана Косолапова, Николай Олейник, Сергей Калантай, Игорь Гнездилов, Татьяна Печёнкина
    Описание: На редколлегии женского еженедельника «XXS» в этот раз было не скучно. Обсуждали не обложку, не верстку и не страницу гороскопов. Нешуточные страсти разгорелись вокруг темы ноябрьского номера: «Чего хотят мужчины?» В схватке участвовали три акулы — три главных автора журнала: Лиза Пахомова («умница»), Вероника Ланская («красавица») и Оля Пышненко («душечка»). Лиза выступала за интеллектуальное соответствие высоким запросам современного мужчины: успехом, по ее мнению, сегодня пользуются остроумные, блестящие женщины с широким кругом интересов. Вероника со знанием дела уверяла, что у нее уйдет пятнадцать минут на то, чтобы отбить мужчину даже у нобелевской лауреатки — достаточно надеть шпильки и слегка подкрасить губы. Оля сказала, что они могут хоть подраться за внимание мужчин — да, на свидания их будут приглашать… но женятся мужчины на таких, как она: уютных, милых, домашних. В конце концов главный редактор Михаил Михайлович Ильин хлопнул кулаком по столу: «хватит пустых слов, идите и докажите! Через месяц жду вас здесь: у кого будет больше предложений руки и сердца, та и будет писать главную статью». Впрочем, у директора есть свой ответ на вопрос: «Чего хотят мужчины?» Для чистоты эксперимента он написал его тут же, на редколлегии, и заклеил конверт. Через месяц проверим — угадал он или нет.-Релиз-группа: -Все раздачи сериала / Сэмпл-Качество: WEBRip
    Формат: AVI
    Видео кодек: XviD
    Аудио кодек: AC3
    Видео: 720x400 (16:9), 25.000 fps, XviD build 73, 1473 Kbps, 0.205 Bits/Pixel
    Аудио: 48 kHz, AC3 Dolby Digital, 2 ch, 192 KbpsБез Рекламы

    MI

    General
    Complete name : Downloads\Zenchina.evo.mecty.2016.WEB-DLRip.Files-x
    Format : AVI
    Format/Info : Audio Video Interleave
    File size : 598 MiB
    Duration : 49mn 58s
    Overall bit rate : 1 674 Kbps
    Writing application : VirtualDubMod 1.5.10.3 | www.virtualdub-fr.org || (build 2550/release)
    Writing library : VirtualDubMod build 2550/release
    Video #0
    ID : 0
    Format : MPEG-4 Visual
    Format profile : Advanced Simple@L5
    Format settings, BVOP : 1
    Format settings, QPel : No
    Format settings, GMC : No warppoints
    Format settings, Matrix : Custom
    Codec ID : XVID
    Codec ID/Hint : XviD
    Duration : 49mn 58s
    Bit rate : 1 473 Kbps
    Width : 720 pixels
    Height : 400 pixels
    Display aspect ratio : 16:9
    Frame rate : 25.000 fps
    Color space : YUV
    Chroma subsampling : 4:2:0
    Bit depth : 8 bits
    Scan type : Progressive
    Compression mode : Lossy
    Bits/(Pixel*Frame) : 0.205
    Stream size : 526 MiB (88%)
    Writing library : XviD 73
    Audio #1
    ID : 1
    Format : AC-3
    Format/Info : Audio Coding 3
    Mode extension : CM (complete main)
    Format settings, Endianness : Big
    Codec ID : 2000
    Duration : 49mn 58s
    Bit rate mode : Constant
    Bit rate : 192 Kbps
    Channel(s) : 2 channels
    Channel positions : Front: L R
    Sampling rate : 48.0 KHz
    Bit depth : 16 bits
    Compression mode : Lossy
    Stream size : 68.6 MiB (11%)
    Alignment : Split accross interleaves
    Interleave, duration : 40 ms (1.00 video frame)
    Interleave, preload duration : 500 ms

    Скриншоты

    Скачать .torrent

    Скачать торрент-файл бесплатно и на максимальной скорости!

    Как скачивать? · Что такое торрент? · Рейтинг и ограничения

    !ВНИМАНИЕ!
    Сайт не распространяет и не хранит электронные версии произведений, а занимается лишь лишь предоставлением доступа к создаваемому пользователями каталогу ссылок на торрент-файлы, которые содержат только списки хеш-сумм, убедительная просьба с жалобами обращаться напрямую к пользователю. Файлы для обмена на трекере предоставлены пользователями сайта, и администрация не несёт ответственности за их содержание. Просьба не заливать файлы, защищенные авторскими правами, а также файлы нелегального содержания!


    _________________
    [Профиль] [ЛС]
    Показать сообщения:    
    Ответить на тему

    Текущее время: Сегодня, в 20:36

    Часовой пояс: GMT + 2



    Вы не можете начинать темы
    Вы не можете отвечать на сообщения
    Вы не можете редактировать свои сообщения
    Вы не можете удалять свои сообщения
    Вы не можете голосовать в опросах
    Вы не можете прикреплять файлы к сообщениям
    Вы не можете скачивать файлы