BitTorrentTracker PerecTracker.org
BitTorrentTracker PerecTracker.org
    
Регистрация  ·  Вход
 
 · 
Забыли пароль?

  • Виктория / Victoria / Сезон: 1 / Серия: 1-8 из 8 (Том Вон, Оливер Блэкбёрн, Сандра Голдбахер) [2016, Великобритания, Историческая драма, HDTVRip] MVO (Jaskier) + Original

    Ответить на тему
     
    Автор Сообщение

    rechyn

    Создавать темы 11-Окт-2016 14:30

           

    [Цитировать]

    Виктория | Victoria -Оригинальное название: Victoria
    Русское название: Виктория
    Год выпуска: 2016
    Страна: Великобритания
    Жанр: Историческая драма
    Продолжительность: ~1 час.-Перевод: Профессиональный (многоголосый закадровый) Студия Jaskier
    Субтитры: Нет-Режиссёр: Том Вон, Оливер Блэкбёрн, Сандра Голдбахер-В ролях: Дженна Коулман, Том Хьюз, Ив Майлс, Томми Найт, Руфус Сьюэлл и другие-Описание: Виктория взошла на престол в период сильной экономической нестабильности и возрождения республиканизма, а умерла 64 года спустя во главе величайшей в мире империи, придав новое значение статусу монарха и став «бабушкой Европы». Первый сезон сериала повествует о ранних годах правления Виктории с момента её восшествия на престол в 1837 году: первых неуверенных шагах от капризного подростка, не до конца понимающего своих обязанностей, до брака с принцем Альбертом. Сериал представляет собой сагу о взаимосвязанных общественных кругах: сфере власти Букингемского дворца и Вестминстера, королевских домах Европы, а также скандалах, касающихся служебного персонала дворца. В центре всего этого находится новая королева — энергичная и страстная женщина, которая однажды станет бессмертным воплощением силы и стабильности.-Сэмпл-Качество: HDTVRip
    Формат: AVI
    Видео кодек: XviD
    Аудио кодек: AC3, MP3
    Видео: Xvid, 720x408 (16:9), 25 fps, ~1200kbps, ~0.113 bit/pixel-Аудио 1: Dolby AC3 48000Hz stereo 192Kbps Русский
    Аудио 2: Lame MP3 48000Hz 128Kbps Оригинал (Английский)-

    MediaInfo

    General
    Complete name               : O:\[!] Jaskier\[Incompleted]\[Jaskier] Victoria [S1] [HDTVRip]\Victoria. Season 1 (HDTVRip l SD l Jaskier)\Victoria.S01E01.HDTV.XVID-JASKiER.avi
    Format                      : AVI
    Format/Info                 : Audio Video Interleave
    File size                   : 581 MiB
    Duration                    : 1h 9mn
    Overall bit rate            : 1 163 Kbps
    Writing application         : VirtualDubModRus 1.5.10.2 (build 2540/release)
    Writing library             : VirtualDubMod build 2540/release
    Video
    ID                          : 0
    Format                      : MPEG-4 Visual
    Format profile              : Advanced Simple@L5
    Format settings, BVOP       : 2
    Format settings, QPel       : Yes
    Format settings, GMC        : 3 warppoints
    Format settings, Matrix     : Default (H.263)
    Codec ID                    : XVID
    Codec ID/Hint               : XviD
    Duration                    : 1h 9mn
    Bit rate                    : 829 Kbps
    Width                       : 720 pixels
    Height                      : 408 pixels
    Display aspect ratio        : 16:9
    Frame rate                  : 25.000 fps
    Color space                 : YUV
    Chroma subsampling          : 4:2:0
    Bit depth                   : 8 bits
    Scan type                   : Progressive
    Compression mode            : Lossy
    Bits/(Pixel*Frame)          : 0.113
    Stream size                 : 414 MiB (71%)
    Writing library             : XviD 1.2.1 (UTC 2008-12-04)
    Audio #1
    ID                          : 1
    Format                      : AC-3
    Format/Info                 : Audio Coding 3
    Mode extension              : CM (complete main)
    Format settings, Endianness : Big
    Codec ID                    : 2000
    Duration                    : 1h 9mn
    Bit rate mode               : Constant
    Bit rate                    : 192 Kbps
    Channel(s)                  : 2 channels
    Channel positions           : Front: L R
    Sampling rate               : 48.0 KHz
    Frame rate                  : 31.250 fps (1536 spf)
    Compression mode            : Lossy
    Stream size                 : 95.9 MiB (17%)
    Alignment                   : Split accross interleaves
    Interleave, duration        : 40 ms (1.00 video frame)
    Interleave, preload duratio : 500 ms
    Audio #2
    ID                          : 2
    Format                      : MPEG Audio
    Format version              : Version 1
    Format profile              : Layer 3
    Codec ID                    : 55
    Codec ID/Hint               : MP3
    Duration                    : 1h 9mn
    Bit rate mode               : Constant
    Bit rate                    : 128 Kbps
    Channel(s)                  : 2 channels
    Sampling rate               : 48.0 KHz
    Compression mode            : Lossy
    Stream size                 : 63.9 MiB (11%)
    Alignment                   : Aligned on interleaves
    Interleave, duration        : 40 ms (1.00 video frame)
    Interleave, preload duratio : 504 ms
    Writing library             : LAME3.98r
    Encoding settings           : -m s -V 4 -q 2 -lowpass 17 -b 128

    Скриншоты

    Ссылка на предыдущие и альтернативные раздачи

    http://perectracker.org/http://perectracker.org/tracker.php?f=42&nm=Victoria
    Скачать .torrent

    Скачать торрент-файл бесплатно и на максимальной скорости!

    Как скачивать? · Что такое торрент? · Рейтинг и ограничения

    !ВНИМАНИЕ!
    Сайт не распространяет и не хранит электронные версии произведений, а занимается лишь лишь предоставлением доступа к создаваемому пользователями каталогу ссылок на торрент-файлы, которые содержат только списки хеш-сумм, убедительная просьба с жалобами обращаться напрямую к пользователю. Файлы для обмена на трекере предоставлены пользователями сайта, и администрация не несёт ответственности за их содержание. Просьба не заливать файлы, защищенные авторскими правами, а также файлы нелегального содержания!


    _________________
    [Профиль] [ЛС]
    Показать сообщения:    
    Ответить на тему

    Текущее время: Сегодня, в 15:53

    Часовой пояс: GMT + 2



    Вы не можете начинать темы
    Вы не можете отвечать на сообщения
    Вы не можете редактировать свои сообщения
    Вы не можете удалять свои сообщения
    Вы не можете голосовать в опросах
    Вы не можете прикреплять файлы к сообщениям
    Вы не можете скачивать файлы