BitTorrentTracker PerecTracker.org
BitTorrentTracker PerecTracker.org
    
Регистрация  ·  Вход
 
 · 
Забыли пароль?

  • Люк Кейдж / Luke Cage / Сезон: 1 / Серия: 1-13 из 13 (Пол МакГиган, Энди Годдар) [2016, фантастика, боевик, триллер, драма, WEBRip 720p] MVO (Jaskier) + Original

    Ответить на тему
     
    Автор Сообщение

    rechyn

    Создавать темы 11-Окт-2016 14:24

           

    [Цитировать]

    Люк Кейдж | Luke Cage -Оригинальное название: Luke Cage
    Русское название: Люк Кейдж
    Год выпуска: 2016
    Страна: США
    Жанр: фантастика, боевик, триллер, драма
    Продолжительность: ~57 мин.-Перевод: Профессиональный (многоголосый закадровый) Студия Jaskier
    Субтитры: Нет-Режиссёр: Пол МакГиган, Энди Годдар-В ролях: Майк Колтер, Махершала Али, Симона Кук, Тео Росси, Элфри Вудард, Фрэнки Фэйзон, Фрэнк Уэйли, Дариус Калеб, Эрик Ларей Харви и другие.-Описание: Не так давно Люк Кейдж жил самой обычной жизнью, у него были свои радости, свои заботы, но в один прекрасный момент все это рухнуло. Люк становится главным подозреваемым в преступлении, которого он вовсе не совершал и понятия не имеет в чем же его обвиняют. Тем не менее суд посчитал все его оправдания безосновательными, так как все улики складываются не в его пользу и он приговаривается к тюремному заключению на весьма длительный срок. Но после нескольких дней отбывания срока заключения в камере, Люку весьма неожиданно поступило предложение принять участие в неком эксперименте по исходу которого он сможет обладать способностями доступными далеко не каждому человеку. Конечно же для Люка Кейджа это становиться весьма сомнительным испытаниям, но тем не менее от нечего делать он соглашается на это пойти, ведь тем самым он хотя бы сможет скрасить свое одиночество в камере. В процессе эксперимента инициаторам еще не успеют довести начатое до конца, как наш главный герой Люк уже почувствует внутри себя небывалую силу, которую никогда не чувствовал. Конечно же теперь Люк не намерен оставаться за решеткой и продолжать дальше отбывать срок за преступление, которого он не совершал, к тому же теперь он наделен небывалой силой. Поэтому Люк недолго думая совершает побег из тюрьмы. На воле Кейдж решает устроиться на новую работу где он сможет пользоваться своими способностями и тем самым очищая город он преступников от которых страдают не в чем неповинные люди. Люк Кейдж восстановит справедливость и покарает всех преступников, так как теперь это стало его основной целью в жизни.-Сэмпл-Качество: WEBRip 720p
    Формат: MKV
    Видео кодек: AVC
    Аудио кодек: AC3
    Видео: 1280x720 (16:9), 23.976 fps, ~4300kbps, ~0.166 bit/pixel-Аудио 1: Dolby AC3 48000Hz 5.1 384Kbps Русский
    Аудио 2: Dolby AC3 48000Hz 5.1 640Kbps Оригинал (Английский)-

    MediaInfo

    General
    Unique ID                   : 197324434535768459396767366686248902878 (0x94734DC0CD40C36B9C222AE0E9E5A0DE)
    Complete name               : XXXXXXXXXXXX\Luke Cage. Season 1 (WEBRip l 720p l Jaskier)\Luke.Cage.S01E01.720p.WEBRip.Jaskier.Rus.Eng.mkv
    Format                      : Matroska
    Format version              : Version 4 / Version 2
    File size                   : 1.77 GiB
    Duration                    : 54mn 2s
    Overall bit rate            : 4 690 Kbps
    Movie name                  : marvels.luke.cage.s01e02.720p.skgtv
    Encoded date                : UTC 2016-10-05 20:06:29
    Writing application         : mkvmerge v8.2.0 ('World of Adventure') 64bit
    Writing library             : libebml v1.3.1 + libmatroska v1.4.2
    Video
    ID                          : 1
    Format                      : AVC
    Format/Info                 : Advanced Video Codec
    Format profile              : High@L4.1
    Format settings, CABAC      : Yes
    Format settings, ReFrames   : 5 frames
    Codec ID                    : V_MPEG4/ISO/AVC
    Duration                    : 54mn 2s
    Bit rate                    : 3 572 Kbps
    Width                       : 1 280 pixels
    Height                      : 720 pixels
    Display aspect ratio        : 16:9
    Frame rate mode             : Constant
    Frame rate                  : 23.976 (24000/1001) fps
    Color space                 : YUV
    Chroma subsampling          : 4:2:0
    Bit depth                   : 8 bits
    Scan type                   : Progressive
    Bits/(Pixel*Frame)          : 0.162
    Stream size                 : 1.35 GiB (76%)
    Title                       : Original
    Writing library             : x264 core 148 r2705 3f5ed56
    Encoding settings           : cabac=1 / ref=5 / deblock=1:-3:-3 / analyse=0x3:0x113 / me=umh / subme=8 / psy=1 / psy_rd=1.00:0.00 / mixed_ref=1 / me_range=16 / chroma_me=1 / trellis=1 / 8x8dct=1 / cqm=0 / deadzone=21,11 / fast_pskip=1 / chroma_qp_offset=-2 / threads=12 / lookahead_threads=2 / sliced_threads=0 / nr=0 / decimate=1 / interlaced=0 / bluray_compat=0 / constrained_intra=0 / bframes=3 / b_pyramid=2 / b_adapt=2 / b_bias=0 / direct=3 / weightb=1 / open_gop=0 / weightp=2 / keyint=250 / keyint_min=23 / scenecut=40 / intra_refresh=0 / rc_lookahead=50 / rc=crf / mbtree=1 / crf=18.0 / qcomp=0.60 / qpmin=0 / qpmax=69 / qpstep=4 / ip_ratio=1.40 / aq=1:1.00
    Language                    : English
    Default                     : Yes
    Forced                      : No
    Color range                 : Limited
    Matrix coefficients         : BT.709
    Audio #1
    ID                          : 2
    Format                      : AC-3
    Format/Info                 : Audio Coding 3
    Mode extension              : CM (complete main)
    Format settings, Endianness : Big
    Codec ID                    : A_AC3
    Duration                    : 54mn 2s
    Bit rate mode               : Constant
    Bit rate                    : 384 Kbps
    Channel(s)                  : 6 channels
    Channel positions           : Front: L C R, Side: L R, LFE
    Sampling rate               : 48.0 KHz
    Frame rate                  : 31.250 fps (1536 spf)
    Compression mode            : Lossy
    Stream size                 : 148 MiB (8%)
    Title                       : Jaskier
    Language                    : Russian
    Default                     : Yes
    Forced                      : No
    Audio #2
    ID                          : 3
    Format                      : AC-3
    Format/Info                 : Audio Coding 3
    Mode extension              : CM (complete main)
    Format settings, Endianness : Big
    Codec ID                    : A_AC3
    Duration                    : 54mn 2s
    Bit rate mode               : Constant
    Bit rate                    : 640 Kbps
    Channel(s)                  : 6 channels
    Channel positions           : Front: L C R, Side: L R, LFE
    Sampling rate               : 48.0 KHz
    Frame rate                  : 31.250 fps (1536 spf)
    Compression mode            : Lossy
    Stream size                 : 247 MiB (14%)
    Title                       : Original
    Language                    : English
    Default                     : No
    Forced                      : No

    Скриншоты

    Ссылка на предыдущие и альтернативные раздачи

    http://perectracker.org/http://perectracker.org/tracker.php?f=318&nm=Luke+Cage
    Скачать .torrent

    Скачать торрент-файл бесплатно и на максимальной скорости!

    Как скачивать? · Что такое торрент? · Рейтинг и ограничения

    !ВНИМАНИЕ!
    Сайт не распространяет и не хранит электронные версии произведений, а занимается лишь лишь предоставлением доступа к создаваемому пользователями каталогу ссылок на торрент-файлы, которые содержат только списки хеш-сумм, убедительная просьба с жалобами обращаться напрямую к пользователю. Файлы для обмена на трекере предоставлены пользователями сайта, и администрация не несёт ответственности за их содержание. Просьба не заливать файлы, защищенные авторскими правами, а также файлы нелегального содержания!


    _________________
    [Профиль] [ЛС]
    Показать сообщения:    
    Ответить на тему

    Текущее время: Сегодня, в 18:19

    Часовой пояс: GMT + 2



    Вы не можете начинать темы
    Вы не можете отвечать на сообщения
    Вы не можете редактировать свои сообщения
    Вы не можете удалять свои сообщения
    Вы не можете голосовать в опросах
    Вы не можете прикреплять файлы к сообщениям
    Вы не можете скачивать файлы