BitTorrentTracker PerecTracker.org
BitTorrentTracker PerecTracker.org
    
Регистрация  ·  Вход
 
 · 
Забыли пароль?

  • 31: Праздник смерти / 31 (Роб Зомби / Rob Zombie) [2016, США, Великобритания, Ужасы, триллер, WEB-DLRip] MVO (iTunes)

    Ответить на тему
     
    Автор Сообщение

    rechyn

    Создавать темы 11-Окт-2016 10:55

           

    [Цитировать]

    31: Праздник смерти / 31
    Страна: США, Великобритания
    Жанр: Ужасы, триллер
    Год выпуска: 2016
    Продолжительность: 01:38:21
    Перевод: Профессиональный (многоголосый закадровый) iTunes
    Cубтитры: нет
    Режиссер: Роб Зомби / Rob Zombie
    В ролях: Шери Мун Зомби (Charly), Джеффри Дэниэл Филлипс (Roscoe Pepper), Лоуренс Хилтон-Джакобс (Panda Thomas), Мег Фостер (Venus Virgo), Кевин Джексон (Levon Wally), Малкольм МакДауэлл (Father Murder), Джейн Карр (Sister Serpent), Джуди Гисон (Sister Dragon), Ричард Брэйк (Doom-Head), Панчо Молер (Sick-Head), Дэвид Ури (Schizo-Head), Лью Темпл (Psycho-Head)
    Описание: Кровавая, можно даже сказать «мясная» история, о том, как однажды группа из пятерых музыкантов попалась в руки самым настоящим психопатам. У психов есть одна забава, каждый год, за несколько дней до Хэллоуина, они выбирают жертвы и устраивают им игру под названием «31». Суть игры заключается в том, что людей помещают в лабиринт с ловушками, построенный самыми маньяками и несчастным жертвам необходимо приложить максимум усилий к своему выживанию на протяжении 12 часов. В то же время маньяки начинают на них свою кровавую охоту...
    Премьера в мире : -- 23.01.2016 (США)
    Рейтинг фильма : -- IMDB / 5,3
    Сэмпл: http://multi-up.com/1121965
    Качество видео: WEB-DLRip
    Формат видео: AVI
    Видео: XviD, 720x304, (2,35:1), 25,000 fps, 1600 Кбит/с, 8 бит
    Аудио: Русский (АС3, 6 ch (Front: L C R, Side: L R, LFE), 48,0 KHz, 384 Kbps)

    MediaInfo

    Общее
    Полное имя : F:\Видеофильмы\В и д е о\31 Праздник смерти (ужасы триллер 2016 год).avi
    Формат : AVI
    Формат/Информация : Audio Video Interleave
    Размер файла : 1,37 Гбайт
    Продолжительность : 1 ч. 38 м.
    Общий поток : 1994 Кбит/сек
    Программа кодирования : VirtualDubMod 1.5.10.3 | www.virtualdub-fr.org || (build 2550/release)
    Библиотека кодирования : VirtualDubMod build 2550/release
    Видео
    Идентификатор : 0
    Формат : MPEG-4 Visual
    Профиль формата : Advanced Simple@L5
    Параметр BVOP формата : 2
    Параметр QPel формата : Нет
    Параметр GMC формата : Без точки перехода
    Параметр матрицы формата : Выборочная
    Идентификатор кодека : XVID
    Идентификатор кодека/Подсказка : XviD
    Продолжительность : 1 ч. 38 м.
    Битрейт : 1600 Кбит/сек
    Ширина : 720 пикселей
    Высота : 304 пикселя
    Соотношение сторон : 2,35:1
    Частота кадров : 25,000 кадров/сек
    Цветовое пространство : YUV
    Субдискретизация насыщенности : 4:2:0
    Битовая глубина : 8 бит
    Тип развёртки : Прогрессивная
    Метод сжатия : С потерями
    Бит/(Пиксели*Кадры) : 0.292
    Размер потока : 1,10 Гбайт (80%)
    Библиотека кодирования : XviD 1.2.1 (UTC 2008-12-04)
    Аудио
    Идентификатор : 1
    Формат : AC-3
    Формат/Информация : Audio Coding 3
    Расширение режима : CM (complete main)
    Параметр Endianness формата : Big
    Идентификатор кодека : 2000
    Продолжительность : 1 ч. 38 м.
    Вид битрейта : Постоянный
    Битрейт : 384 Кбит/сек
    Каналы : 6 каналов
    Расположение каналов : Front: L C R, Side: L R, LFE
    Частота : 48,0 КГц
    Частота кадров : 31,250 кадров/сек (1536 spf)
    Метод сжатия : С потерями
    Размер потока : 270 Мбайт (19%)
    Выравнивание : Разделение по промежуткам
    Продолжительность промежутка : 40 мс. (1,00 видеокадр)
    Время предзагрузки промежутка : 500 мс.

    Скриншот c названием фильма

    Скриншоты

    Скачать .torrent

    Скачать торрент-файл бесплатно и на максимальной скорости!

    Как скачивать? · Что такое торрент? · Рейтинг и ограничения

    !ВНИМАНИЕ!
    Сайт не распространяет и не хранит электронные версии произведений, а занимается лишь лишь предоставлением доступа к создаваемому пользователями каталогу ссылок на торрент-файлы, которые содержат только списки хеш-сумм, убедительная просьба с жалобами обращаться напрямую к пользователю. Файлы для обмена на трекере предоставлены пользователями сайта, и администрация не несёт ответственности за их содержание. Просьба не заливать файлы, защищенные авторскими правами, а также файлы нелегального содержания!


    _________________
    [Профиль] [ЛС]
    Показать сообщения:    
    Ответить на тему

    Текущее время: Сегодня, в 07:49

    Часовой пояс: GMT + 2



    Вы не можете начинать темы
    Вы не можете отвечать на сообщения
    Вы не можете редактировать свои сообщения
    Вы не можете удалять свои сообщения
    Вы не можете голосовать в опросах
    Вы не можете прикреплять файлы к сообщениям
    Вы не можете скачивать файлы