BitTorrentTracker PerecTracker.org
BitTorrentTracker PerecTracker.org
    
Регистрация  ·  Вход
 
 · 
Забыли пароль?

  • Супер Майк XXL / Magic Mike XXL (Грегори Джейкобс / Gregory Jacobs) [2015, США, комедия, музыка, драма, HDRip] Dub

    Ответить на тему
     
    Автор Сообщение

    Light

    Создавать темы 11-Окт-2016 10:55

           

    [Цитировать]

    Супер Майк XXL / Magic Mike XXL-Страна: США
    Жанр: комедия, музыка, драма
    Год выпуска: 2015
    Продолжительность: 01:55:17
    Перевод: Профессиональный (дублированный)
    Cубтитры: нет-Режиссер: Грегори Джейкобс / Gregory Jacobs-В ролях: Ченнинг Татум, Джо Манганьелло, Мэтт Бомер, Кевин Нэш, Эмбер Хёрд Депп, Элизабет Бэнкс, Адам Родригес, Габриэль Иглесиас, Энди МакДауэлл, Джада Пинкетт Смит.-Описание: Прошло три года после того, как Майк на пике своей популярности закончил карьеру стриптизера, а клуб «Короли Тампы» уже почти готов признать свое поражение. Но проделать это в своем стиле: готовясь «зажечь» Мёртл-Бич, они снова разделят сцену с легендарным Супер Майком. Дорога на последнее шоу проходит через Джеконсвилл и Саванну, где Майк и парни повстречают старых знакомых и заведут новых, а также выучат пару неизбитых движений, тряхнув при этом стариной.-Автор рипа: Scarabey-Качество видео: HDRip
    Формат видео: AVI | Sample
    Видео: 688x288 (2.40:1), 23.976 fps, XviD build 73 ~767 kbps avg, 0.16 bit/pixel
    Аудио: 48 kHz, MPEG Layer 3, 2 ch, ~128.00 kbps avg | Дубляж

    Инфо

    Формат : AVI
    Формат/Информация : Audio Video Interleave
    Размер файла : 746 Мбайт
    Продолжительность : 1 ч. 55 м.
    Общий поток : 904 Кбит/сек
    Программа кодирования : VirtualDubMod | (build 2550/release)
    Библиотека кодирования : VirtualDubMod build 2550/release
    Видео
    Идентификатор : 0
    Формат : MPEG-4 Visual
    Профиль формата : Advanced Simple@L5
    Параметр BVOP формата : 1
    Параметр QPel формата : Нет
    Параметр GMC формата : Без точки перехода
    Параметр матрицы формата : Выборочная
    Идентификатор кодека : XVID
    Идентификатор кодека/Подсказка : XviD
    Продолжительность : 1 ч. 55 м.
    Битрейт : 767 Кбит/сек
    Ширина : 688 пикселей
    Высота : 288 пикселей
    Соотношение сторон : 2,40:1
    Частота кадров : 23,976 (23976/1000) кадра/сек
    Цветовое пространство : YUV
    Субдискретизация насыщенности : 4:2:0
    Битовая глубина : 8 бит
    Тип развёртки : Прогрессивная
    Метод сжатия : С потерями
    Бит/(Пиксели*Кадры) : 0.161
    Размер потока : 632 Мбайт (85%)
    Библиотека кодирования : XviD 73
    Аудио
    Идентификатор : 1
    Формат : MPEG Audio
    Версия формата : Version 1
    Профиль формата : Layer 3
    Идентификатор кодека : 55
    Идентификатор кодека/Подсказка : MP3
    Продолжительность : 1 ч. 55 м.
    Вид битрейта : Постоянный
    Битрейт : 128 Кбит/сек
    Каналы : 2 канала
    Частота : 48,0 КГц
    Метод сжатия : С потерями
    Размер потока : 106 Мбайт (14%)
    Выравнивание : Соединение по промежуткам
    Продолжительность промежутка : 42 мс. (1,00 видеокадр)
    Время предзагрузки промежутка : 504 мс.
    Библиотека кодирования : LAME3.99r
    Настройки программы : -m s -V 4 -q 2 -lowpass 17 -b 128

    Скриншоты

    Скачать .torrent

    Скачать торрент-файл бесплатно и на максимальной скорости!

    Как скачивать? · Что такое торрент? · Рейтинг и ограничения

    !ВНИМАНИЕ!
    Сайт не распространяет и не хранит электронные версии произведений, а занимается лишь лишь предоставлением доступа к создаваемому пользователями каталогу ссылок на торрент-файлы, которые содержат только списки хеш-сумм, убедительная просьба с жалобами обращаться напрямую к пользователю. Файлы для обмена на трекере предоставлены пользователями сайта, и администрация не несёт ответственности за их содержание. Просьба не заливать файлы, защищенные авторскими правами, а также файлы нелегального содержания!


    _________________
    [Профиль] [ЛС]
    Показать сообщения:    
    Ответить на тему

    Текущее время: Сегодня, в 04:30

    Часовой пояс: GMT + 2



    Вы не можете начинать темы
    Вы не можете отвечать на сообщения
    Вы не можете редактировать свои сообщения
    Вы не можете удалять свои сообщения
    Вы не можете голосовать в опросах
    Вы не можете прикреплять файлы к сообщениям
    Вы не можете скачивать файлы