BitTorrentTracker PerecTracker.org
BitTorrentTracker PerecTracker.org
    
Регистрация  ·  Вход
 
 · 
Забыли пароль?

  • Степной волк / Итси-Битси / Steppeulven / Itsi Bitsi (Оле Кристиан Мадсен / Ole Christian Madsen) [2014, Дания, драма, DVDRip-AVC] (Grabomir) + Sub Rus, Eng + Original Dan

    Ответить на тему
     
    Автор Сообщение

    Light

    Создавать темы 11-Окт-2016 10:55

           

    [Цитировать]

    Степной волк / Итси-Битси / Steppeulven / Itsi Bitsi
    Страна: Дания
    Жанр: драма
    Год выпуска: 2014
    Продолжительность: 01:42:07
    Перевод: Субтитры Grabomir
    Cубтитры: русские, английские
    Оригинальная аудиодорожка: датский
    Режиссер: Оле Кристиан Мадсен / Ole Christian Madsen
    В ролях: Йоаким Фьельструп, Мари Тоурелль Сёдерберг, Кристиан Гаде Бьеррум, Каспар Филлипсон, Йоханнес Нюмарк, Туре Линдхардт, Ула Рапас, Юлия Рагнарссон
    Описание: В 1962-м Эйк мечтал изменить мир, борясь за него: он расклеивал на старых копенгагенских стенах антивоенные плакаты, за что был свинчен нарядом полиции и оказался в тюремной камере. Там, на грязном полу, избитый и в крови, он встретил Ибен – женщину своей жизни. Вместе они преодолели тысячи километров, прошли через отчаянные наркотические опыты, проверили на прочность свою способность признавать свободу партнера и прожили годы, не стесняя себя сексуальными обязательствами: в своем так и неоконченном романе Эйк описал много «мужских битв» с другими привязанностями Ибен. Самое же удивительное в этой истории любви – её абсолютная подлинность: Эйк и Ибен – реальные люди, они жили здесь, они жили среди нас...
    Доп. информация: Релиз - Скандинавский калейдоскоп.

    Сэмпл: https://yadi.sk/i/Gj5HJkdPwXFwv
    Качество видео: DVDRip-AVC
    Формат видео: MKV
    Видео: V_MPEG4/ISO/AVC, 1 280x532, 24.000 fps, 1 800 Kbps
    Аудио: AC-3, 48.0 KHz, 384 Kbps, 6 channels
    Формат субтитров: softsub (SRT)

    MediaInfo

    General
    Unique ID : 179723177647605690879619394254119771173 (0x87356CC9BB8B1636A73D75E0BD561C25)
    Complete name : E:\Torrent\Степной волк (Steppeulven) (2014).mkv
    Format : Matroska
    Format version : Version 4 / Version 2
    File size : 1.63 GiB
    Duration : 1h 46mn
    Overall bit rate : 2 177 Kbps
    Movie name : Steppeulven - HEJRA @ NXTGN.org
    Encoded date : UTC
    Writing application : mkvmerge v6.7.0 ('Back to the Ground') 64bit built on Jan 8 2014 15:10:52
    Writing library : Lavf55.12.0
    DURATION : 01:42:07.375000000
    NUMBER_OF_FRAMES : 846
    NUMBER_OF_BYTES : 61175
    _STATISTICS_WRITING_APP : mkvmerge v8.0.0 ('Til The Day That I Die') 64bit
    _STATISTICS_WRITING_DATE_UTC : 2016-01-04 09:11:37
    _STATISTICS_TAGS : BPS DURATION NUMBER_OF_FRAMES NUMBER_OF_BYTES
    Video
    ID : 1
    Format : AVC
    Format/Info : Advanced Video Codec
    Format profile : High@L4.1
    Format settings, CABAC : Yes
    Format settings, ReFrames : 4 frames
    Codec ID : V_MPEG4/ISO/AVC
    Duration : 1h 46mn
    Bit rate : 1 800 Kbps
    Width : 1 280 pixels
    Height : 532 pixels
    Display aspect ratio : 2.40:1
    Frame rate mode : Constant
    Frame rate : 24.000 fps
    Color space : YUV
    Chroma subsampling : 4:2:0
    Bit depth : 8 bits
    Scan type : Progressive
    Bits/(Pixel*Frame) : 0.110
    Stream size : 1.31 GiB (80%)
    Writing library : x264 core 142 r2479 dd79a61
    Encoding settings : cabac=1 / ref=3 / deblock=1:0:0 / analyse=0x3:0x113 / me=hex / subme=7 / psy=1 / psy_rd=1.00:0.00 / mixed_ref=1 / me_range=16 / chroma_me=1 / trellis=1 / 8x8dct=1 / cqm=0 / deadzone=21,11 / fast_pskip=1 / chroma_qp_offset=-2 / threads=6 / lookahead_threads=1 / sliced_threads=0 / nr=0 / decimate=1 / interlaced=0 / bluray_compat=0 / constrained_intra=0 / bframes=3 / b_pyramid=2 / b_adapt=1 / b_bias=0 / direct=1 / weightb=1 / open_gop=0 / weightp=2 / keyint=240 / keyint_min=24 / scenecut=40 / intra_refresh=0 / rc_lookahead=40 / rc=abr / mbtree=1 / bitrate=1800 / ratetol=1.0 / qcomp=0.60 / qpmin=0 / qpmax=69 / qpstep=4 / vbv_maxrate=62500 / vbv_bufsize=78125 / nal_hrd=none / filler=0 / ip_ratio=1.40 / aq=1:1.00
    Default : Yes
    Forced : No
    Color primaries : BT.709
    Transfer characteristics : BT.709
    Matrix coefficients : BT.709
    DURATION : 01:46:57.875000000
    NUMBER_OF_FRAMES : 154029
    NUMBER_OF_BYTES : 1436758276
    _STATISTICS_WRITING_APP : mkvmerge v8.0.0 ('Til The Day That I Die') 64bit
    _STATISTICS_WRITING_DATE_UTC : 2016-01-04 09:11:37
    _STATISTICS_TAGS : BPS DURATION NUMBER_OF_FRAMES NUMBER_OF_BYTES
    Audio
    ID : 2
    Format : AC-3
    Format/Info : Audio Coding 3
    Mode extension : CM (complete main)
    Format settings, Endianness : Big
    Codec ID : A_AC3
    Duration : 1h 46mn
    Bit rate mode : Constant
    Bit rate : 384 Kbps
    Channel(s) : 6 channels
    Channel positions : Front: L C R, Side: L R, LFE
    Sampling rate : 48.0 KHz
    Bit depth : 16 bits
    Compression mode : Lossy
    Stream size : 294 MiB (18%)
    Title : Surround
    Language : Danish
    Default : Yes
    Forced : No
    DURATION : 01:46:58.016000000
    NUMBER_OF_FRAMES : 200563
    NUMBER_OF_BYTES : 308064768
    _STATISTICS_WRITING_APP : mkvmerge v8.0.0 ('Til The Day That I Die') 64bit
    _STATISTICS_WRITING_DATE_UTC : 2016-01-04 09:11:37
    _STATISTICS_TAGS : BPS DURATION NUMBER_OF_FRAMES NUMBER_OF_BYTES
    Text #1
    ID : 3
    Format : UTF-8
    Codec ID : S_TEXT/UTF8
    Codec ID/Info : UTF-8 Plain Text
    Language : Russian
    Default : Yes
    Forced : No
    Text #2
    ID : 4
    Format : UTF-8
    Codec ID : S_TEXT/UTF8
    Codec ID/Info : UTF-8 Plain Text
    Language : English
    Default : No
    Forced : No
    Menu
    00:00:00.000 : :Kapitel 1
    00:15:00.166 : :Kapitel 2
    00:30:00.083 : :Kapitel 3
    00:45:00.083 : :Kapitel 4
    01:00:00.166 : :Kapitel 5
    01:15:00.166 : :Kapitel 6
    01:30:00.166 : :Kapitel 7

    Скриншот c названием фильма

    Скриншоты

    Пример субтитров

    1
    00:00:01,280 --> 00:00:07,851
    «СТЕПНОЙ ВОЛК»,
    реж. Оле Кристиан Мадсен
    2
    00:00:08,280 --> 00:00:10,851
    Перевод с норвежского: Grabomir
    3
    00:00:11,106 --> 00:00:14,182
    СКАНДИНАВСКИЙ КАЛЕЙДОСКОП
    4
    00:00:25,458 --> 00:00:31,583
    «Разве станет она молиться
    За малых детей у ворот...
    5
    00:00:31,666 --> 00:00:35,041
    ...Которые не хотят удалиться
    и не умеют молиться...
    6
    00:00:35,125 --> 00:00:37,833
    ...Молись за тех,
    кто избрал и попрал».
    7
    00:00:37,876 --> 00:00:41,335
    Томас Стернз Элиот, «Пепельная среда».
    Перевод А. Сергеева
    8
    00:00:44,916 --> 00:00:48,208
    Приграничная зона между
    Пакистаном и Индией, октябрь 1968.
    9
    00:01:12,916 --> 00:01:18,208
    <i>Я хочу – так, что не выразить
    ни в словах, ни в мыслях...</i>
    10
    00:01:18,291 --> 00:01:21,333
    <i>...увидеть тебя.</i>
    11
    00:01:24,375 --> 00:01:26,375
    <i>Не обязательно говорить...</i>
    12
    00:01:26,458 --> 00:01:31,125
    <i>...только увидеть глаза,
    которые я знаю, что видел.</i>
    13
    00:01:31,208 --> 00:01:35,333
    <i>Человека, о котором я знаю,
    что он знает обо мне.</i>
    14
    00:01:57,541 --> 00:02:01,375
    <i>Я думал отправиться
    обратно в Непал.</i>
    15
    00:02:02,541 --> 00:02:06,375
    <i>Я попытаюсь исцелиться.</i>
    16
    00:02:20,000 --> 00:02:23,083
    <i>Дорогая Ибен.</i>
    17
    00:02:23,166 --> 00:02:29,291
    <i>Я не знаю, чем это закончится.
    Но я знаю, как это началось.</i>
    18
    00:02:29,375 --> 00:02:33,583
    – Копенгаген, 1962 –
    19
    00:02:33,666 --> 00:02:39,750
    <i>Я клеил плакаты против атомного оружия.
    Полиция нас не любила.</i>
    20
    00:02:39,833 --> 00:02:45,208
    <i>В тот вечер они схватили меня
    в третий раз. Тут без побоев никак.</i>
    21
    00:02:46,208 --> 00:02:48,416
    <i>Но дело было
    не только в ракетах...</i>
    22
    00:02:48,500 --> 00:02:52,958
    <i>...но и в Дании, которая
    погрузилась в застой.</i>
    23
    00:02:53,041 --> 00:02:57,291
    <i>Стране, которая должна была
    пробудиться и измениться.</i>
    24
    00:03:00,708 --> 00:03:03,041
    Привет, Эйк.
    Скачать .torrent

    Скачать торрент-файл бесплатно и на максимальной скорости!

    Как скачивать? · Что такое торрент? · Рейтинг и ограничения

    !ВНИМАНИЕ!
    Сайт не распространяет и не хранит электронные версии произведений, а занимается лишь лишь предоставлением доступа к создаваемому пользователями каталогу ссылок на торрент-файлы, которые содержат только списки хеш-сумм, убедительная просьба с жалобами обращаться напрямую к пользователю. Файлы для обмена на трекере предоставлены пользователями сайта, и администрация не несёт ответственности за их содержание. Просьба не заливать файлы, защищенные авторскими правами, а также файлы нелегального содержания!


    _________________
    [Профиль] [ЛС]
    Показать сообщения:    
    Ответить на тему

    Текущее время: Сегодня, в 05:55

    Часовой пояс: GMT + 2



    Вы не можете начинать темы
    Вы не можете отвечать на сообщения
    Вы не можете редактировать свои сообщения
    Вы не можете удалять свои сообщения
    Вы не можете голосовать в опросах
    Вы не можете прикреплять файлы к сообщениям
    Вы не можете скачивать файлы