BitTorrentTracker PerecTracker.org
BitTorrentTracker PerecTracker.org
    
Регистрация  ·  Вход
 
 · 
Забыли пароль?

  • Дома / Дом / Hemma / Home (Максимилиан Хульт / Maximilian Hult) [2013, Швеция, Исландия, драма, мелодрама, DVDRip-AVC] Sub Rus, Eng + Original Swe

    Ответить на тему
     
    Автор Сообщение

    Light

    Создавать темы 11-Окт-2016 10:55

           

    [Цитировать]

    Дома / Дом / Hemma / Home
    Страна: Швеция, Исландия
    Жанр: драма, мелодрама
    Год выпуска: 2013
    Продолжительность: 01:28:49
    Перевод: Субтитры Александра Гусева
    Cубтитры: русские, английские
    Оригинальная аудиодорожка: шведский
    Режиссер: Максимилиан Хульт / Maximilian Hult
    В ролях: Саймон Дж. Бергер, Лиа Бойсен, Муа Гаммель, Ларс Линд, Эрик Лундквист, Анита Валль
    Описание: Лу — невероятно способная и трудолюбивая девушка, но общение с ней вызывает у окружающих только дискомфорт. Новость о смерти деда обрушилась на нее, как гром среди ясного неба — долгое время она считала, что дедушка и бабушка давно умерли, но, оказывается, бабушка жива до сих пор. Лу отправляется в путешествие в крохотную деревушку и знакомится с Фридой, потерянным мальчиком Томом и Хенриком, который влюбяется в нее по уши. Путешествие, из которого Лу узнает, что такое любовь и где ее настоящий дом. Трогательная смесь грустной драмы и милой комедии, приправленная душевной музыкой.
    Доп. информация: Релиз - Скандинавский калейдоскоп

    Сэмпл: https://yadi.sk/i/VcZDk0jMwWUfu
    Качество видео: DVDRip-AVC
    Формат видео: MKV
    Видео: V_MPEG4/ISO/AVC, 720x572 (1024x572), 25.000 fps, 2 143 Kbps
    Аудио: AC-3, 48.0 KHz, 448 Kbps, 6 channels
    Формат субтитров: softsub (SRT)

    MediaInfo

    General
    Unique ID : 219165929802798176085392819115839526155 (0xA4E1D29C7208758C9A305F5624CD150B)
    Complete name : E:\Torrent\Дома (Hemma) (2013).mkv
    Format : Matroska
    Format version : Version 4 / Version 2
    File size : 1.64 GiB
    Duration : 1h 31mn
    Overall bit rate : 2 578 Kbps
    Encoded date : UTC 2016-10-09 08:14:59
    Writing application : mkvmerge v6.7.0 ('Back to the Ground') 64bit built on Jan 8 2014 15:10:52
    Writing library : libebml v1.3.0 + libmatroska v1.4.1
    DURATION : 01:28:49.151000000
    NUMBER_OF_FRAMES : 788
    NUMBER_OF_BYTES : 54575
    _STATISTICS_WRITING_APP : mkvmerge v8.0.0 ('Til The Day That I Die') 64bit
    _STATISTICS_WRITING_DATE_UTC : 2015-08-17 15:56:11
    _STATISTICS_TAGS : BPS DURATION NUMBER_OF_FRAMES NUMBER_OF_BYTES
    Video
    ID : 1
    Format : AVC
    Format/Info : Advanced Video Codec
    Format profile : High@L3.1
    Format settings, CABAC : Yes
    Format settings, ReFrames : 9 frames
    Codec ID : V_MPEG4/ISO/AVC
    Duration : 1h 31mn
    Bit rate : 2 143 Kbps
    Width : 720 pixels
    Height : 572 pixels
    Display aspect ratio : 16:9
    Frame rate mode : Constant
    Frame rate : 25.000 fps
    Color space : YUV
    Chroma subsampling : 4:2:0
    Bit depth : 8 bits
    Scan type : Progressive
    Bits/(Pixel*Frame) : 0.208
    Stream size : 1.32 GiB (81%)
    Writing library : x264 core 130 r2273 b3065e6
    Encoding settings : cabac=1 / ref=9 / deblock=1:-3:-3 / analyse=0x3:0x133 / me=umh / subme=9 / psy=1 / psy_rd=1.00:0.00 / mixed_ref=1 / me_range=24 / chroma_me=1 / trellis=2 / 8x8dct=1 / cqm=0 / deadzone=21,11 / fast_pskip=0 / chroma_qp_offset=-2 / threads=6 / lookahead_threads=1 / sliced_threads=0 / nr=0 / decimate=1 / interlaced=0 / bluray_compat=0 / constrained_intra=0 / bframes=6 / b_pyramid=2 / b_adapt=2 / b_bias=0 / direct=3 / weightb=1 / open_gop=0 / weightp=2 / keyint=250 / keyint_min=25 / scenecut=40 / intra_refresh=0 / rc_lookahead=60 / rc=abr / mbtree=1 / bitrate=2143 / ratetol=1.0 / qcomp=0.60 / qpmin=0 / qpmax=69 / qpstep=4 / ip_ratio=1.40 / aq=2:1.00
    Language : English
    Default : Yes
    Forced : No
    Color primaries : BT.601 PAL
    Transfer characteristics : BT.709
    Matrix coefficients : BT.601
    Audio
    ID : 2
    Format : AC-3
    Format/Info : Audio Coding 3
    Mode extension : CM (complete main)
    Format settings, Endianness : Big
    Codec ID : A_AC3
    Duration : 1h 31mn
    Bit rate mode : Constant
    Bit rate : 448 Kbps
    Channel(s) : 6 channels
    Channel positions : Front: L C R, Side: L R, LFE
    Sampling rate : 48.0 KHz
    Bit depth : 16 bits
    Compression mode : Lossy
    Stream size : 292 MiB (17%)
    Language : Swedish
    Default : Yes
    Forced : No
    Text #1
    ID : 3
    Format : UTF-8
    Codec ID : S_TEXT/UTF8
    Codec ID/Info : UTF-8 Plain Text
    Language : Russian
    Default : Yes
    Forced : No
    Text #2
    ID : 4
    Format : UTF-8
    Codec ID : S_TEXT/UTF8
    Codec ID/Info : UTF-8 Plain Text
    Language : English
    Default : No
    Forced : No
    Menu
    00:00:00.000 : en:Chapter 1
    00:06:38.400 : en:Chapter 2
    00:13:36.480 : en:Chapter 3
    00:21:34.080 : en:Chapter 4
    00:28:04.320 : en:Chapter 5
    00:35:37.920 : en:Chapter 6
    00:42:13.440 : en:Chapter 7
    00:50:24.480 : en:Chapter 8
    00:56:00.000 : en:Chapter 9
    01:02:09.600 : en:Chapter 10
    01:09:24.480 : en:Chapter 11
    01:15:41.760 : en:Chapter 12
    01:22:18.720 : en:Chapter 13
    01:29:16.800 : en:Chapter 14

    Скриншот c названием фильма

    Скриншоты

    720x572

    1024x572

    Пример субтитров

    1
    00:00:01,280 --> 00:00:07,851
    «Дома», Максимилиан Хульт
    2
    00:00:08,280 --> 00:00:10,851
    Перевод: Александра Гусева
    3
    00:00:11,106 --> 00:00:14,182
    СКАНДИНАВСКИЙ КАЛЕЙДОСКОП
    4
    00:02:49,700 --> 00:02:51,668
    Привет.
    5
    00:02:51,860 --> 00:02:55,262
    Ты можешь к нам присоединиться.
    — Ага.
    6
    00:02:55,460 --> 00:02:58,304
    Она всегда такая грубая.
    7
    00:03:19,740 --> 00:03:24,302
    Твой дедушка умер.
    — Он умер 20 лет назад.
    8
    00:03:24,500 --> 00:03:27,151
    Да, но сегодня он действительно умер.
    9
    00:03:27,340 --> 00:03:31,664
    Что ты имеешь в виду?
    — А что тебе непонятно?
    10
    00:03:31,860 --> 00:03:34,261
    Он умер сегодня. Его больше нет.
    11
    00:03:34,460 --> 00:03:37,543
    Почему ты всегда говорила, что он умер?
    12
    00:03:43,940 --> 00:03:46,386
    А моя бабушка жива?
    13
    00:04:11,940 --> 00:04:16,309
    Мам, где подарок?
    — Какой подарок?
    14
    00:04:16,500 --> 00:04:19,629
    Я иду на день рождения к Йесперу.
    15
    00:04:19,820 --> 00:04:24,462
    Ну, возьми что-нибудь, что тебе больше
    не нужно, и я это упакую.
    16
    00:04:24,660 --> 00:04:27,140
    Что?
    17
    00:05:06,020 --> 00:05:09,069
    Когда мы теряем кого-то близкого...
    18
    00:05:09,260 --> 00:05:14,391
    помоги нам обрести утешение в тебе
    и разделить его друг с другом.
    19
    00:05:14,580 --> 00:05:18,187
    Мы благодарны тебе за то, что
    ты дал нам в лице Ингве Люнда.
    20
    00:05:18,380 --> 00:05:23,591
    Наполни наши сердца мудростью, дабы
    мы поняли, как жизнь коротка...
    21
    00:05:23,780 --> 00:05:27,830
    и воспринимали каждый день как дар.
    22
    00:05:28,020 --> 00:05:34,585
    Утешь нас и помоги нам жить ради самого
    бытия до конца наших дней.
    Скачать .torrent

    Скачать торрент-файл бесплатно и на максимальной скорости!

    Как скачивать? · Что такое торрент? · Рейтинг и ограничения

    !ВНИМАНИЕ!
    Сайт не распространяет и не хранит электронные версии произведений, а занимается лишь лишь предоставлением доступа к создаваемому пользователями каталогу ссылок на торрент-файлы, которые содержат только списки хеш-сумм, убедительная просьба с жалобами обращаться напрямую к пользователю. Файлы для обмена на трекере предоставлены пользователями сайта, и администрация не несёт ответственности за их содержание. Просьба не заливать файлы, защищенные авторскими правами, а также файлы нелегального содержания!


    _________________
    [Профиль] [ЛС]
    Показать сообщения:    
    Ответить на тему

    Текущее время: Сегодня, в 14:46

    Часовой пояс: GMT + 2



    Вы не можете начинать темы
    Вы не можете отвечать на сообщения
    Вы не можете редактировать свои сообщения
    Вы не можете удалять свои сообщения
    Вы не можете голосовать в опросах
    Вы не можете прикреплять файлы к сообщениям
    Вы не можете скачивать файлы