BitTorrentTracker PerecTracker.org
BitTorrentTracker PerecTracker.org
    
Регистрация  ·  Вход
 
 · 
Забыли пароль?

  • День независимости: Возрождение / Independence Day: Resurgence (Роланд Эммерих / Roland Emmerich) [2016, США, фантастика, боевик, приключения, HDRip] Dub + Rus forced

    Ответить на тему
     
    Автор Сообщение

    rechyn

    Создавать темы 09-Окт-2016 12:55

           

    [Цитировать]

    День независимости: Возрождение
    Independence Day: Resurgence
    -Страна: США
    Студия: 20th Century Fox Film Corporation
    Жанр: фантастика, боевик, приключения
    Год выпуска: 2016
    Продолжительность: 01:59:44
    Перевод: Профессиональный (дублированный)
    Cубтитры: русские форсированные | отдельно-Режиссер: Роланд Эммерих / Roland Emmerich-В ролях: Лиам Хемсворт, Джефф Голдблюм, Джесси Ашер, Билл Пуллман, Майка Монро, Села Уорд, Уильям Фихтнер, Джадд Хёрш, Брент Спайнер, Патрик Ст. Эсприт, Вивика А. Фокс, Анджела Бейби-Описание: Используя инопланетные технологии, жители Земли создали специальную программу по защите планеты. Но ничего не может нас спасти от нового, еще более разрушительного и масштабного инопланетного вторжения - только смелость нескольких героев, которые единственные могут спасти наш мир от уничтожения.-Релиз от: MegaPeer-Качество видео: HDRip
    Формат видео: AVI | Sample
    Видео: 688x288 (2.40:1), 23.976 fps, XviD build 73 ~738 kbps avg, 0.16 bit/pixel
    Аудио: 48 kHz, MPEG Layer 3, 2 ch, ~128.00 kbps avg | Дубляж BD CEE
    Инфо

    MediaInfo

    Формат : AVI
    Формат/Информация : Audio Video Interleave
    Размер файла : 746 Мбайт
    Продолжительность : 1 ч. 59 м.
    Общий поток : 871 Кбит/сек
    Видео
    Идентификатор : 0
    Формат : MPEG-4 Visual
    Профиль формата : Advanced Simple@L5
    Параметр BVOP формата : 1
    Параметр QPel формата : Нет
    Параметр GMC формата : Без точки перехода
    Параметр матрицы формата : Выборочная
    Идентификатор кодека : XVID
    Идентификатор кодека/Подсказка : XviD
    Продолжительность : 1 ч. 59 м.
    Битрейт : 738 Кбит/сек
    Ширина : 688 пикселей
    Высота : 288 пикселей
    Соотношение сторон : 2,40:1
    Частота кадров : 23,976 (24000/1001) кадра/сек
    Цветовое пространство : YUV
    Субдискретизация насыщенности : 4:2:0
    Битовая глубина : 8 бит
    Тип развёртки : Прогрессивная
    Метод сжатия : С потерями
    Бит/(Пиксели*Кадры) : 0.155
    Размер потока : 632 Мбайт (85%)
    Библиотека кодирования : XviD 73
    Аудио
    Идентификатор : 1
    Формат : MPEG Audio
    Версия формата : Version 1
    Профиль формата : Layer 3
    Режим : Joint stereo
    Расширение режима : MS Stereo
    Идентификатор кодека : 55
    Идентификатор кодека/Подсказка : MP3
    Продолжительность : 1 ч. 59 м.
    Вид битрейта : Постоянный
    Битрейт : 128 Кбит/сек
    Каналы : 2 канала
    Частота : 48,0 КГц
    Метод сжатия : С потерями
    Размер потока : 110 Мбайт (15%)
    Выравнивание : Соединение по промежуткам
    Продолжительность промежутка : 167 мс. (4,00 видеокадра)
    Время предзагрузки промежутка : 216 мс.
    Заголовок : BD CEE
    Библиотека кодирования : LAME3.99r
    Настройки программы : -m j -V 4 -q 2 -lowpass 17 -b 128

    Скриншоты

    Скачать .torrent

    Скачать торрент-файл бесплатно и на максимальной скорости!

    Как скачивать? · Что такое торрент? · Рейтинг и ограничения

    !ВНИМАНИЕ!
    Сайт не распространяет и не хранит электронные версии произведений, а занимается лишь лишь предоставлением доступа к создаваемому пользователями каталогу ссылок на торрент-файлы, которые содержат только списки хеш-сумм, убедительная просьба с жалобами обращаться напрямую к пользователю. Файлы для обмена на трекере предоставлены пользователями сайта, и администрация не несёт ответственности за их содержание. Просьба не заливать файлы, защищенные авторскими правами, а также файлы нелегального содержания!


    _________________
    [Профиль] [ЛС]
    Показать сообщения:    
    Ответить на тему

    Текущее время: Сегодня, в 02:03

    Часовой пояс: GMT + 2



    Вы не можете начинать темы
    Вы не можете отвечать на сообщения
    Вы не можете редактировать свои сообщения
    Вы не можете удалять свои сообщения
    Вы не можете голосовать в опросах
    Вы не можете прикреплять файлы к сообщениям
    Вы не можете скачивать файлы