BitTorrentTracker PerecTracker.org
BitTorrentTracker PerecTracker.org
    
Регистрация  ·  Вход
 
 · 
Забыли пароль?

  • Наследники / Кончина Огюста / La mort d\'Auguste (Дени Мальваль / Denis Malleval) [2015, Франция, драма, экранизация, DVB] Original (Fre) + Sub (Rus, Eng, Fre, Deu)

    Ответить на тему
     
    Автор Сообщение

    Light

    Создавать темы 09-Окт-2016 12:55

           

    [Цитировать]

    Наследники
    La mort d'Auguste-Страна: Франция
    Жанр: драма, экранизация
    Год выпуска: 2015
    Продолжительность: 01:31:35
    Перевод: Субтитры (перевод Е.Маньен, Éclair Media)
    Cубтитры: русские, английские, французские, немецкие, нидерландские
    Оригинальная аудиодорожка: французский
    Режиссер: Дени Мальваль / Denis MallevalВ ролях: Жан-Пьер Даруссен / Jean-Pierre Darroussin (Antoine Mature), Антуан Дюлери / Antoine Duléry (Ferdinand Mature), Брюно Соло / Bruno Solo (Bernard Mature), Оливия Брюно / Olivia Brunaux (Lucie Mature), Анн Боду / Anne Baudoux (Véronique Mature), Жюли Жюдд / Julie Judd (Nicole Mature), Жереми Шарбоннель / Jérémy Charbonnel (Jean-Loup Mature)
    Описание: по роману Жоржа Сименона "Кончина Огюста / La mort d'Auguste" (1966).
    Перу известного французского писателя Жоржа Сименона (1903 - 1989) принадлежат не только книги о комиссаре Мегрэ, но и так называемые "трудные" романы, в которых, как правило, высвечивается судьба человека, вырванного из привычных социальных связей, отброшенного в бездну собственных страхов и неврозов, поставленного один на один со своей бедой. Роман Сименона "Кончина Огюста" относится к жанру социально-психологического. В этот жанр автором было внесено много своего, оригинального, не похожего на то, что писали его современники. После внезапной кончины хозяина ресторана "У Овернца" 78-летнего мсье Огюста Матюра, не оставившего завещания, встал вопрос о его наследстве...
    Доп. информация: Hot Bird (13.0°E) TV5MONDE Europe DVB-S

    Качество видео: DVB
    Формат видео: MKV
    Видео: MPEG Video 2, 720x576@1024x576 (16:9), 25 fps, ~2908 kbps avg, 0.280 bit/pixel
    Аудио: MPEG Audio 2, 2 ch, 48 kHz, 192 kbps - французский
    Формат субтитров: softsub (SRT)

    Пример субтитров

    100:00:19,758 --> 00:00:22,758Господа, проходите,не беспокойтесь!
    200:00:28,081 --> 00:00:30,637Огюст! Берегись,сейчас птичка вылетит!
    300:00:30,637 --> 00:00:33,637Смотри, как бы онатебя самого не клюнула.
    400:00:33,754 --> 00:00:35,399Все готовы?
    500:00:35,399 --> 00:00:38,399Стой смирно.Иначе не попадешь на фотографию.
    600:00:38,557 --> 00:00:39,838"У ОВЕРНЦА"
    700:00:39,838 --> 00:00:42,675Внимание...
    800:00:42,675 --> 00:00:44,126Не двигаемся!
    900:00:44,126 --> 00:00:47,126НАСЛЕДНИКИ
    1000:01:01,316 --> 00:01:04,316Смотрите.
    1100:01:04,608 --> 00:01:07,608С тех пор прошло ровно40 лет. Дата - 1925 год.
    1200:01:08,998 --> 00:01:11,998К тому моменту ресторансуществовал уже 5 лет.
    1300:01:13,638 --> 00:01:14,601Спасибо.
    1400:01:14,601 --> 00:01:16,637Попробуете моей наливки?
    1500:01:16,637 --> 00:01:17,836С удовольствием.
    1600:01:17,836 --> 00:01:20,836Она у меня отличная.Не поддельная!
    1700:01:21,440 --> 00:01:23,242-Спасибо.-Да не за что.
    1800:01:23,242 --> 00:01:24,835После вкусного обеда...
    1900:01:24,835 --> 00:01:27,835-Вам понравилось?-Баранина была восхитительной.
    2000:01:28,204 --> 00:01:30,756Вы заказали барашка по-брайодски?

    MediaInfo

    GeneralUnique ID : 232241304805852295478151982994691614853 (0xAEB80C5F058B4FCF9366FDA7ED966885)Complete name : [apreder]La_mort_d'Auguste(2015)DVB.mkvFormat : MatroskaFormat version : Version 2File size : 2.02 GiBDuration : 1 h 31 minOverall bit rate : 3 163 kb/sMovie name : La mort d'AugusteReleased date : 2015-12-15Encoded date : UTC 2016-10-08 07:09:22Writing application : mkvmerge v9.4.2 ('So High') 64bitWriting library : libebml v1.3.4 + libmatroska v1.4.5Cover : YesAttachments : cover.jpg / small_cover.jpgACTOR : Jean-Pierre Darroussin, Antoine Dulйry, Bruno SoloDIRECTOR : Denis MallevalGENRE : DramaIMDB : tt4714066KEYWORDS : perectracker.orgLAW_RATING : 16+
    VideoID : 1Format : MPEG VideoFormat version : Version 2Format profile : Main@MainFormat settings, BVOP : YesFormat settings, Matrix : CustomFormat settings, GOP : M=4, N=12Format settings, picture structure : FrameCodec ID : V_MPEG2Codec ID/Info : MPEG 1 or 2 VideoDuration : 1 h 31 minBit rate : 2 908 kb/sMaximum bit rate : 3 200 kb/sWidth : 720 pixelsHeight : 576 pixelsDisplay aspect ratio : 16:9Frame rate mode : ConstantFrame rate : 25.000 FPSStandard : PALColor space : YUVChroma subsampling : 4:2:0Bit depth : 8 bitsScan type : InterlacedScan order : Top Field FirstCompression mode : LossyBits/(Pixel*Frame) : 0.280Stream size : 1.86 GiB (92%)Default : YesForced : No
    AudioID : 2Format : MPEG AudioFormat version : Version 1Format profile : Layer 2Mode : Joint stereoMode extension : Intensity Stereo + MS StereoCodec ID : A_MPEG/L2Codec ID/Hint : MP2Duration : 1 h 31 minBit rate mode : ConstantBit rate : 192 kb/sChannel(s) : 2 channelsSampling rate : 48.0 kHzCompression mode : LossyStream size : 126 MiB (6%)Language : FrenchDefault : YesForced : No
    Text #1ID : 3Format : UTF-8Codec ID : S_TEXT/UTF8Codec ID/Info : UTF-8 Plain TextLanguage : RussianDefault : NoForced : No
    Text #2ID : 4Format : UTF-8Codec ID : S_TEXT/UTF8Codec ID/Info : UTF-8 Plain TextLanguage : EnglishDefault : NoForced : No
    Text #3ID : 5Format : UTF-8Codec ID : S_TEXT/UTF8Codec ID/Info : UTF-8 Plain TextLanguage : FrenchDefault : NoForced : No
    Text #4ID : 6Format : UTF-8Codec ID : S_TEXT/UTF8Codec ID/Info : UTF-8 Plain TextLanguage : GermanDefault : NoForced : No
    Text #5ID : 7Format : UTF-8Codec ID : S_TEXT/UTF8Codec ID/Info : UTF-8 Plain TextLanguage : DutchDefault : NoForced : No

    Скриншот c названием фильма

    Скриншоты

    Резервные скриншоты


    -
    Скачать .torrent

    Скачать торрент-файл бесплатно и на максимальной скорости!

    Как скачивать? · Что такое торрент? · Рейтинг и ограничения

    !ВНИМАНИЕ!
    Сайт не распространяет и не хранит электронные версии произведений, а занимается лишь лишь предоставлением доступа к создаваемому пользователями каталогу ссылок на торрент-файлы, которые содержат только списки хеш-сумм, убедительная просьба с жалобами обращаться напрямую к пользователю. Файлы для обмена на трекере предоставлены пользователями сайта, и администрация не несёт ответственности за их содержание. Просьба не заливать файлы, защищенные авторскими правами, а также файлы нелегального содержания!


    _________________
    [Профиль] [ЛС]
    Показать сообщения:    
    Ответить на тему

    Текущее время: Сегодня, в 03:16

    Часовой пояс: GMT + 2



    Вы не можете начинать темы
    Вы не можете отвечать на сообщения
    Вы не можете редактировать свои сообщения
    Вы не можете удалять свои сообщения
    Вы не можете голосовать в опросах
    Вы не можете прикреплять файлы к сообщениям
    Вы не можете скачивать файлы