BitTorrentTracker PerecTracker.org
BitTorrentTracker PerecTracker.org
    
Регистрация  ·  Вход
 
 · 
Забыли пароль?

  • Тэли и Толи (Александр Амиров) [2016, Россия, Греция, Грузия, Канада, мелодрама, трагикомедия, WEB-DLRip]

    Ответить на тему
     
    Автор Сообщение

    Flirldrerve

    Создавать темы 09-Окт-2016 08:45

           

    [Цитировать]

    Тэли и Толи
    Жанр: Мелодрама, трагикомедия
    Год выпуска: 2016
    Совместное производство: Россия, Греция, Грузия, Канада
    Продолжительность: 01:14:00
    Режиссёр: Александр Амиров
    В ролях: Нуца Хубулава, Риналь Мухаметов, Кахи Кавсадзе, Дагун Омаев, Нанули Сараджишвили, Сослан Фидаров, Сергей Погосян, Иван Дубровский, Владислав Дёмин, Анатолий Дзиваев, Казбек Кибизов, и др.
    Описание: Действие фильма разворачивается в одном из высокогорных ущелий Центрального Кавказского хребта, где много веков мирно сосуществовали два села - грузинское Тэли и осетинское Толи. Давно заброшенные сёла, в которых нет ни газа, ни света, разделены теперь границей, которая проходит по мелководной речушке Арагавке. В Тэли живут семидесятилетний грузин Кахи Кипиани, его жена Титико, внук Гоча и одинокий пастух Шалико. В Толи остались ровесник и друг Кахи осетин Бази Кесаев, его жена Кошер, внучка Сатиник и пастух Валико, брат Шалико. Гоча и Сатиник объявлены в сёлах женихом и невестой, против чего они оба совсем не возражают. И осетины, и грузины, привыкшие к определённому укладу жизни, никак не могут смириться с существованием границ между ними. Общими у них остались только кладбище и небольшая церквушка. Жители сёл давно уже считаются "странными" людьми, а они в свою очередь с настороженностью относятся к тем, кого называют "людьми долины" и от кого не без оснований всегда ждут только неприятностей. С грузинской стороны границу охраняет лейтенант грузинской полиции Гоги Пирцхалава, с российской - рядовой пограничник Максим Иванов. На середине моста через Арагавку они соорудили столб, на котором прибили от руки написанную химическим карандашом табличку "Граница".
    Фильм "Тэли и Толи" о том, что жизнь простых людей разных национальностей, их обычаи, нравы, образ жизни, который веками формировал их сознание, не под силу изменить никаким политическим течениям и отдельным политиканам. Они всегда найдут общий язык и будут жить в мире и согласии, как наши герои…

    Качество видео: WEB-DLRip
    Формат видео: AVI
    Видео: XviD 73 MPEG-4, 688x288 (2.40:1) 25.000 fps, ~1267 kbps avg, 0.256 bit/pixel
    Аудио: MP-3 Joint stereo, CBR 128 kbps 2 ch, 48.0 KHz

    MediaInfo

    ОбщееПолное имя : E:\Тэли_и_Толи_2016_WEB-DLRip_[perectracker.org].aviФормат : AVIФормат/Информация : Audio Video InterleaveРазмер файла : 743 МбайтПродолжительность : 1 ч. 14 м.Общий поток : 1404 Кбит/секНазвание фильма : Тэли_и_Толи_2016_WEB-DLRip_[perectracker.org]Режиссёр : NetworkЖанр : Мелодрама, трагикомедияПрограмма кодирования : VirtualDubModRus 1.5.10.2 (build 2542/release)Формат оригинала/Имя : Наше киноПравообладатель : NetworkПримечание : 9 октября 2016 г.
    ВидеоИдентификатор : 0Формат : MPEG-4 VisualПрофиль формата : Advanced Simple@L5Параметр BVOP формата : 1Параметр QPel формата : НетПараметр GMC формата : Без точки переходаПараметр матрицы формата : ВыборочнаяИдентификатор кодека : DX50Идентификатор кодека/Подсказка : DivX 5Продолжительность : 1 ч. 14 м.Битрейт : 1267 Кбит/секШирина : 688 пикселейВысота : 288 пикселейСоотношение сторон : 2,40:1Частота кадров : 25,000 кадров/секЦветовое пространство : YUVСубдискретизация насыщенности : 4:2:0Битовая глубина : 8 битТип развёртки : ПрогрессивнаяМетод сжатия : С потерямиБит/(Пиксели*Кадры) : 0.256Размер потока : 670 Мбайт (90%)Библиотека кодирования : XviD 73
    АудиоИдентификатор : 1Формат : MPEG AudioВерсия формата : Version 1Профиль формата : Layer 3Режим : Joint stereoРасширение режима : MS StereoИдентификатор кодека : 55Идентификатор кодека/Подсказка : MP3Продолжительность : 1 ч. 14 м.Вид битрейта : ПостоянныйБитрейт : 128 Кбит/секКаналы : 2 каналаЧастота : 48,0 КГцМетод сжатия : С потерямиРазмер потока : 67,8 Мбайт (9%)Выравнивание : Соединение по промежуткамПродолжительность промежутка : 40 мс. (1,00 видеокадр)Время предзагрузки промежутка : 504 мс.Библиотека кодирования : LAME3.98rНастройки программы : -m j -V 4 -q 2 -lowpass 17 -b 128

    Скриншот c названием фильма

    Скриншоты

    Время раздачи - по возможности.
    Скачать .torrent

    Скачать торрент-файл бесплатно и на максимальной скорости!

    Как скачивать? · Что такое торрент? · Рейтинг и ограничения

    !ВНИМАНИЕ!
    Сайт не распространяет и не хранит электронные версии произведений, а занимается лишь лишь предоставлением доступа к создаваемому пользователями каталогу ссылок на торрент-файлы, которые содержат только списки хеш-сумм, убедительная просьба с жалобами обращаться напрямую к пользователю. Файлы для обмена на трекере предоставлены пользователями сайта, и администрация не несёт ответственности за их содержание. Просьба не заливать файлы, защищенные авторскими правами, а также файлы нелегального содержания!


    _________________
    [Профиль] [ЛС]
    Показать сообщения:    
    Ответить на тему

    Текущее время: Сегодня, в 10:29

    Часовой пояс: GMT + 2



    Вы не можете начинать темы
    Вы не можете отвечать на сообщения
    Вы не можете редактировать свои сообщения
    Вы не можете удалять свои сообщения
    Вы не можете голосовать в опросах
    Вы не можете прикреплять файлы к сообщениям
    Вы не можете скачивать файлы