BitTorrentTracker PerecTracker.org
BitTorrentTracker PerecTracker.org
    
Регистрация  ·  Вход
 
 · 
Забыли пароль?

  • [ATV3] Ночные стражи (Эмилис Веливис / Emilis Welyvis ) [2016, Россия, Фэнтези, боевик, WEB-DL, HD (1080p)] Original

    Ответить на тему
     
    Автор Сообщение

    rechyn

    Создавать темы 08-Окт-2016 20:10

           

    [Цитировать]

    Ночные стражи
    «Отдел борьбы с нечистью ждет новую кровь»
    3.723 / 10
    -Год выпуска: 2016
    Страна: Россия
    Жанр: Фэнтези, боевик
    Продолжительность: 01:36:47
    Перевод: Не требуется
    Оригинальная аудиодорожка: Есть
    Cубтитры: Нет
    Режиссёр: Эмилис Веливис
    Сценарий: Олег Маловичко
    Продюсер: Вадим Горяинов, Рубен Дишдишян, Леонид Ярмольник
    Оператор: Алексей Куприянов
    Композитор: Дмитрий Носков
    Художник: Юлия Феофанова
    В ролях: Иван Янковский, Любовь Аксенова, Леонид Ярмольник, Михаил Евланов, Сабина Ахмедова, Константин Адаев, Юрий Ваксман, Алексей Дмитриев, Денис Бузин, Евгений Косырев
    Бюджет: 230 000 000 руб.
    Сборы в России: $501 006
    Мировая премьера: 2 сентября 2016
    Премьера (РФ): 25 августа 2016, «Вольга»
    Описание: Оборотни, упыри и ведьмы — существуют. Если вы до сих пор не сталкивались с ними, то это заслуга отдела по надзору за представителями альтернативной жизни.
    Обычный курьер случайно становится свидетелем зачистки нечисти в одном из столичных отелей, после чего получает новую работу.
    Сотрудники отдела «Н» не бессмертны, но даже вампирам они не по зубам.-Качество исходника: WEB-DL 1080p (BlueBird)
    Качество: WEB-DL
    Тип: HD (1080p)
    Контейнер: M4V
    Видео: H.264, 1920x806, 2.40:1, 4 600 Kbps, 25.000 fps
    Аудио 1: Русский/Оригинальная дорожка , AAC / 2.0 / 160 Kbps / 48.0 KHz
    Аудио 2: Русский/Оригинальная дорожка , AC-3 / 5.1 / 384 Kbps / 48.0 KHz
    -

    iTunes Meta Tags

    Sort Name: Ночные стражи
    XID: Apple:vendor_id:2016-861616
    contentID: 1146564666
    Copyright: © 2016 Вольга
    Screenwriters: Олег Маловичко
    Producers: Вадим Горяинов, Рубен Дишдишян, Леонид Ярмольник
    Director: Эмилис Веливис
    Cast: Иван Янковский, Любовь Аксенова, Леонид Ярмольник, Михаил Евланов, Сабина Ахмедова, Константин Адаев, Юрий Ваксман, Алексей Дмитриев, Денис Бузин, Евгений Косырев
    Studio: Марс Медиа Энтертейнмент
    Rating: 134
    Long Description: Оборотни, упыри и ведьмы - существуют. Если вы до сих пор не сталкивались с ними, то это заслуга отдела по надзору за представителями альтернативной жизни.
    Обычный курьер случайно становится свидетелем зачистки нечисти в одном из столичных отелей, после чего получает новую работу.
    Сотрудники отдела "Н" не бессмертны, но даже вампирам они не по зубам.
    Description: Оборотни, упыри и ведьмы - существуют. Если вы до сих пор не сталкивались с ними, то это заслуга отдела по надзору за представителями альтернативной жизни.
    Обычный курьер случайно становится свидетелем зачистки нечисти в одном из столичных отелей, после чего получает новую работу.
    Сотрудники отдела "Н" не бессмертны, но даже вампирам они не по зубам.
    Release Date: 2016-09-02T08:00:00Z
    Genre: Боевики и приключения
    Artist: Эмилис Веливис
    Name: Ночные стражи

    MediaInfo

    General
    Complete name : /Users/imac/HandBrake/Nochnye.Strazhi..WEB.DL.1080p.m4v
    Format : MPEG-4
    Codec ID : M4V
    File size : 3.48 GiB
    Duration : 1h 36mn
    Overall bit rate mode : Variable
    Overall bit rate : 5 149 Kbps
    Movie name : Ночные стражи
    Performer : Эмилис Веливис
    Director : Эмилис Веливис
    Actor : Иван Янковский / Любовь Аксенова / Леонид Ярмольник / Михаил Евланов / Сабина Ахмедова / Константин Адаев / Юрий Ваксман / Алексей Дмитриев / Денис Бузин / Евгений Косырев
    Screenplay by : Олег Маловичко
    Producer : Вадим Горяинов / Рубен Дишдишян / Леонид Ярмольник
    Production studio : Марс Медиа Энтертейнмент
    Genre : Боевики и приключения
    ContentType : Short Film
    Description : Оборотни, упыри и ведьмы - существуют. Если вы до сих пор не сталкивались с ними, то это заслуга отдела по надзору за представителями альтернативной жизни. Обычный курьер случайно становится свидетелем зачистки нечисти в одном из столичных отелей, после чего получает новую работу. Сотрудники отдела "Н" не бессмертны, но даже вампирам они не по зубам.
    Recorded date : UTC 2016-09-02 08:00:00
    Encoded date : UTC 2016-10-08 11:08:13
    Tagged date : UTC 2016-10-08 11:11:55
    Copyright : © 2016 Вольга
    Cover : Yes
    Rating : None
    Title/Sort : Ночные стражи
    LongDescription : Оборотни, упыри и ведьмы - существуют. Если вы до сих пор не сталкивались с ними, то это заслуга отдела по надзору за представителями альтернативной жизни. Обычный курьер случайно становится свидетелем зачистки нечисти в одном из столичных отелей, после чего получает новую работу. Сотрудники отдела "Н" не бессмертны, но даже вампирам они не по зубам.
    AppleStoreCatalogID : 1146564666
    Vendor : Apple:vendor_id:2016-861616
    ContentRating : ru-movie|12+|200|
    Video #1
    ID : 1
    Format : AVC
    Format/Info : Advanced Video Codec
    Format profile : High@L4
    Format settings, CABAC : Yes
    Format settings, ReFrames : 5 frames
    Codec ID : avc1
    Codec ID/Info : Advanced Video Coding
    Duration : 1h 36mn
    Bit rate : 4 600 Kbps
    Width : 1 920 pixels
    Height : 806 pixels
    Display aspect ratio : 2.40:1
    Frame rate mode : Constant
    Frame rate : 25.000 fps
    Color space : YUV
    Chroma subsampling : 4:2:0
    Bit depth : 8 bits
    Scan type : Progressive
    Bits/(Pixel*Frame) : 0.119
    Stream size : 3.11 GiB (89%)
    Title : Main Program
    Language : Russian
    Encoded date : UTC 2016-10-08 11:08:13
    Tagged date : UTC 2016-10-08 11:08:19
    Color range : Limited
    Color primaries : BT.709
    Transfer characteristics : BT.709
    Matrix coefficients : BT.709
    Video #2
    ID : 5
    Format : JPEG
    Codec ID : jpeg
    Duration : 1h 36mn
    Bit rate mode : Variable
    Bit rate : 688 bps
    Width : 640 pixels
    Height : 268 pixels
    Display aspect ratio : 2.40:1
    Frame rate mode : Variable
    Frame rate : 0.003 fps
    Minimum frame rate : 0.001 fps
    Maximum frame rate : 0.003 fps
    Color space : YUV
    Chroma subsampling : 4:2:0
    Bit depth : 8 bits
    Compression mode : Lossy
    Bits/(Pixel*Frame) : 1.337
    Stream size : 420 KiB (0%)
    Title : Chapter Images
    Language : Russian
    Encoded date : UTC 2016-10-08 11:08:27
    Tagged date : UTC 2016-10-08 11:08:27
    Audio #1
    ID : 2
    Format : AAC
    Format/Info : Advanced Audio Codec
    Format profile : LC
    Codec ID : 40
    Duration : 1h 36mn
    Bit rate mode : Variable
    Bit rate : 158 Kbps
    Maximum bit rate : 242 Kbps
    Channel(s) : 2 channels
    Channel positions : Front: L R
    Sampling rate : 48.0 KHz
    Compression mode : Lossy
    Stream size : 109 MiB (3%)
    Title : Russian Stereo
    Language : Russian
    Encoded date : UTC 2016-10-08 11:08:13
    Tagged date : UTC 2016-10-08 11:08:21
    Audio #2
    ID : 3
    Format : AC-3
    Format/Info : Audio Coding 3
    Mode extension : CM (complete main)
    Format settings, Endianness : Big
    Codec ID : ac-3
    Duration : 1h 36mn
    Bit rate mode : Constant
    Bit rate : 384 Kbps
    Channel(s) : 6 channels
    Channel positions : Front: L C R, Side: L R, LFE
    Sampling rate : 48.0 KHz
    Bit depth : 16 bits
    Compression mode : Lossy
    Stream size : 266 MiB (7%)
    Title : Russian DD 5.1
    Language : Russian
    Encoded date : UTC 2016-10-08 11:08:13
    Tagged date : UTC 2016-10-08 11:08:19
    Menu #1
    00:00:00.000 : Глава 1
    00:05:21.600 : Глава 2
    00:10:34.720 : Глава 3
    00:16:12.680 : Глава 4
    00:22:16.080 : Глава 5
    00:28:47.480 : Глава 6
    00:34:50.200 : Глава 7
    00:41:29.880 : Глава 8
    00:47:19.480 : Глава 9
    00:54:12.520 : Глава 10
    01:00:01.600 : Глава 11
    01:06:19.440 : Глава 12
    01:12:22.320 : Глава 13
    01:18:35.320 : Глава 14
    01:25:03.440 : Глава 15
    Menu #2
    ID : 4
    Codec ID : text
    Duration : 1h 36mn
    Language : Russian
    Encoded date : UTC 2016-10-08 11:08:21
    Tagged date : UTC 2016-10-08 11:08:21
    00:00:00.000 : Глава 1
    00:05:21.600 : Глава 2
    00:10:34.720 : Глава 3
    00:16:12.680 : Глава 4
    00:22:16.080 : Глава 5
    00:28:47.480 : Глава 6
    00:34:50.200 : Глава 7
    00:41:29.880 : Глава 8
    00:47:19.480 : Глава 9
    00:54:12.520 : Глава 10
    01:00:01.600 : Глава 11
    01:06:19.440 : Глава 12
    01:12:22.320 : Глава 13
    01:18:35.320 : Глава 14
    01:25:03.440 : Глава 15
    Bit rate mode : VBR

    Скриншоты


    -

    Релиз подготовлен для просмотра на Apple TV, iPad, iPhone, iPod Touch.
    Для просмотра данного релиза на компьютере с ОС Windows рекомендуется использовать VLC media player
    Скачать .torrent

    Скачать торрент-файл бесплатно и на максимальной скорости!

    Как скачивать? · Что такое торрент? · Рейтинг и ограничения

    !ВНИМАНИЕ!
    Сайт не распространяет и не хранит электронные версии произведений, а занимается лишь лишь предоставлением доступа к создаваемому пользователями каталогу ссылок на торрент-файлы, которые содержат только списки хеш-сумм, убедительная просьба с жалобами обращаться напрямую к пользователю. Файлы для обмена на трекере предоставлены пользователями сайта, и администрация не несёт ответственности за их содержание. Просьба не заливать файлы, защищенные авторскими правами, а также файлы нелегального содержания!


    _________________
    [Профиль] [ЛС]
    Показать сообщения:    
    Ответить на тему

    Текущее время: Сегодня, в 16:20

    Часовой пояс: GMT + 2



    Вы не можете начинать темы
    Вы не можете отвечать на сообщения
    Вы не можете редактировать свои сообщения
    Вы не можете удалять свои сообщения
    Вы не можете голосовать в опросах
    Вы не можете прикреплять файлы к сообщениям
    Вы не можете скачивать файлы