BitTorrentTracker PerecTracker.org
BitTorrentTracker PerecTracker.org
    
Регистрация  ·  Вход
 
 · 
Забыли пароль?

  • Марсианин / The Martian (Ридли Скотт / Ridley Scott) [2015, США, Фантастика, приключения, WEB-DLRip] [Open Matte / Локализованный видеоряд] Dub

    Ответить на тему
     
    Автор Сообщение

    Light

    Создавать темы 08-Окт-2016 07:40

           

    [Цитировать]

    Марсианин / The Martian
    «Верните его домой»-Год выхода: 2015
    Выпущено: США / 20th Century Fox Film Corporation
    Жанр: фантастика, приключения
    Продолжительность: 02:21:38
    Перевод: Профессиональный (полное дублирование) BD EUR |Лицензия|
    Субтитры: нет-Режиссер:
    Ридли Скотт / Ridley Scott-В ролях:
    Мэтт Дэймон (Mark Watney), Джессика Честейн (Melissa Lewis), Чиветель Эджиофор (Vincent Kapoor), Кристен Уиг (Annie Montrose), Джефф Дэниелс (Teddy Sanders), Майкл Пенья (Rick Martinez), Шон Бин (Mitch Henderson), Кейт Мара (Beth Johanssen), Себастьян Стэн (Chris Beck), Аксель Хенни (Alex Vogel), Бенедикт Вонг (Bruce Ng), Маккензи Дэвис (Mindy Park), Дональд Гловер (Rich Purnell)-О фильме:
    Марсианская миссия «Арес-3» в процессе работы была вынуждена экстренно покинуть планету из-за надвигающейся песчаной бури. Инженер и биолог Марк Уотни получил повреждение скафандра во время песчаной бури. Сотрудники миссии, посчитав его погибшим, эвакуировались с планеты, оставив Марка одного.
    Очнувшись, Уотни обнаруживает, что связь с Землёй отсутствует, но при этом полностью функционирует жилой модуль. Главный герой начинает искать способ продержаться на имеющихся запасах еды, витаминов, воды и воздуха ещё 4 года до прилёта следующей миссии «Арес-4».-Релиз групп
    | | IMDB | КиноПоиск | Сэмпл |-Качество: WEB-DLRip [The Martian 2015 WEB - DL 1080i Open Matte - BLUEBIRD]
    Формат: AVI
    Видео: 688x384 (1.79:1), 23.976 fps, XviD build 67 ~1279 kbps avg, 0.20 bit/pixel
    Аудио: 48 kHz, AC3 Dolby Digital, 2/0 (L,R) ch, ~192 kbps avg-

    Скриншоты

    -
    Исходник
    Цитата:
    Цитата:

    Исходник с онлайн кинотеатра
    Open Matte версия фильма, имеет большее наполнение кадра по сравнению с блюрэй
    Видеоряд локализован(все надписи на Русском языке)
    За помощь с выкупом исходника СПАСИБО АДмин и paukan888
    Blu-ray vs WEB-DL


    MediaInfo

    Общее
    Полное имя                               : D:\Marsianin_2015_WEB-DLRip_[Open_Matte]_by_Dalemake.avi
    Формат                                   : AVI
    Формат/Информация                        : Audio Video Interleave
    Размер файла                             : 1,47 Гбайт
    Продолжительность                        : 2 ч. 21 м.
    Общий поток                              : 1481 Кбит/сек
    Программа кодирования                    : VirtualDubMod 1.5.10.3 | www.virtualdub-fr.org || (build 2550/release)
    Библиотека кодирования                   : VirtualDubMod build 2550/release
    Видео
    Идентификатор                            : 0
    Формат                                   : MPEG-4 Visual
    Профиль формата                          : Advanced Simple@L5
    Параметр BVOP формата                    : 1
    Параметр QPel формата                    : Нет
    Параметр GMC формата                     : Без точки перехода
    Параметр матрицы формата                 : Выборочная
    Идентификатор кодека                     : XVID
    Идентификатор кодека/Подсказка           : XviD
    Продолжительность                        : 2 ч. 21 м.
    Битрейт                                  : 1279 Кбит/сек
    Ширина                                   : 688 пикселей
    Высота                                   : 384 пикселя
    Соотношение сторон                       : 16:9
    Частота кадров                           : 23,976 кадра/сек
    Цветовое пространство                    : YUV
    Субдискретизация насыщенности            : 4:2:0
    Битовая глубина                          : 8 бит
    Тип развёртки                            : Прогрессивная
    Метод сжатия                             : С потерями
    Бит/(Пиксели*Кадры)                      : 0.202
    Размер потока                            : 1,27 Гбайт (86%)
    Библиотека кодирования                   : XviD 67
    Аудио
    Идентификатор                            : 1
    Формат                                   : AC-3
    Формат/Информация                        : Audio Coding 3
    Расширение режима                        : CM (complete main)
    Параметр Endianness формата              : Big
    Идентификатор кодека                     : 2000
    Продолжительность                        : 2 ч. 21 м.
    Вид битрейта                             : Постоянный
    Битрейт                                  : 192 Кбит/сек
    Каналы                                   : 2 канала
    Расположение каналов                     : Front: L R
    Частота                                  : 48,0 КГц
    Битовая глубина                          : 16 бит
    Метод сжатия                             : С потерями
    Размер потока                            : 194 Мбайт (13%)
    Выравнивание                             : Разделение по промежуткам
    Продолжительность промежутка             : 42  мс. (1,00 видеокадр)
    Время предзагрузки промежутка            : 500  мс.
    -
    Скачать .torrent

    Скачать торрент-файл бесплатно и на максимальной скорости!

    Как скачивать? · Что такое торрент? · Рейтинг и ограничения

    !ВНИМАНИЕ!
    Сайт не распространяет и не хранит электронные версии произведений, а занимается лишь лишь предоставлением доступа к создаваемому пользователями каталогу ссылок на торрент-файлы, которые содержат только списки хеш-сумм, убедительная просьба с жалобами обращаться напрямую к пользователю. Файлы для обмена на трекере предоставлены пользователями сайта, и администрация не несёт ответственности за их содержание. Просьба не заливать файлы, защищенные авторскими правами, а также файлы нелегального содержания!


    _________________
    [Профиль] [ЛС]
    Показать сообщения:    
    Ответить на тему

    Текущее время: Сегодня, в 12:05

    Часовой пояс: GMT + 2



    Вы не можете начинать темы
    Вы не можете отвечать на сообщения
    Вы не можете редактировать свои сообщения
    Вы не можете удалять свои сообщения
    Вы не можете голосовать в опросах
    Вы не можете прикреплять файлы к сообщениям
    Вы не можете скачивать файлы