BitTorrentTracker PerecTracker.org
BitTorrentTracker PerecTracker.org
    
Регистрация  ·  Вход
 
 · 
Забыли пароль?

  • Монах и бес (Николай Досталь) [2016, Россия, Комедия, фантастика, WEB-DL, HD (720p)] Original

    Ответить на тему
     
    Автор Сообщение

    rechyn

    Создавать темы 07-Окт-2016 17:15

           

    [Цитировать]

    Монах и бес
    -
    7.253 / 10
    -Год выпуска: 2016
    Страна: Россия
    Жанр: Комедия, фантастика
    Продолжительность: 01:53:03
    Перевод: Не требуется
    Оригинальная аудиодорожка: Есть
    Cубтитры: Нет
    Режиссёр: Николай Досталь
    Сценарий: Юрий Арабов
    Продюсер: Игорь Толстунов, Сергей Козлов, Александр Досталь
    Оператор: Леван Капанадзе
    Композитор: Александр Соколов
    Художник: Павел Пархоменко, Майя Мартьянова
    В ролях: Тимофей Трибунцев, Георгий Фетисов, Борис Каморзин, Роман Мадянов, Никита Тарасов, Сергей Барковский
    Бюджет: 130 000 000 руб.
    Сборы в России: $66 720
    Премьера (РФ): 8 сентября 2016, «Наше Кино»
    Релиз на DVD: 20 октября 2016, «CD Land»
    Описание: Фантастическая история первой половины XIX века. В мужском монастыре появляется новый насельник Иван Семенович. Но вместе с монахом в монастырь проникают темные силы, которые материализуются в лице Легиона (так он представился Ивану). Легион избрал Ивана объектом своей дьявольской работы, всячески искушая его, чтобы сбить с избранного им пути служения Богу. Но чем сильнее искушение, тем крепче духовные силы Ивана.-Качество исходника: WEB-DL 720p (NNMClub)
    Качество: WEB-DL
    Тип: HD (720p)
    Контейнер: M4V
    Видео: H.264, 1280x692, 1.85:1, 3 996 Kbps, 24.000 fps
    Аудио 1: Русский/Оригинальная дорожка , AAC / 2.0 / 160 Kbps / 48.0 KHz
    Аудио 2: Русский/Оригинальная дорожка , AC-3 / 5.1 / 384 Kbps / 48.0 KHz
    -

    iTunes Meta Tags

    Sort Name: Монах и бес
    XID: Apple:vendor_id:2016-742184
    contentID: 1161061202
    Copyright: © 2016 CD Land
    Screenwriters: Юрий Арабов
    Producers: Игорь Толстунов, Сергей Козлов, Александр Досталь
    Director: Николай Досталь
    Cast: Тимофей Трибунцев, Георгий Фетисов, Борис Каморзин, Роман Мадянов, Никита Тарасов, Сергей Барковский
    Studio: Эталон-фильм, Профит
    Rating: 134
    Long Description: Фантастическая история первой половины XIX века. В мужском монастыре появляется новый насельник Иван Семенович. Но вместе с монахом в монастырь проникают темные силы, которые материализуются в лице Легиона (так он представился Ивану). Легион избрал Ивана объектом своей дьявольской работы, всячески искушая его, чтобы сбить с избранного им пути служения Богу. Но чем сильнее искушение, тем крепче духовные силы Ивана.
    Description: Фантастическая история первой половины XIX века. В мужском монастыре появляется новый насельник Иван Семенович. Но вместе с монахом в монастырь проникают темные силы, которые материализуются в лице Легиона (так он представился Ивану). Легион избрал Ивана объектом своей дьявольской работы, всячески искушая его, чтобы сбить с избранного им пути служения Богу. Но чем сильнее искушение, тем крепче духовные силы Ивана.
    Release Date: 2016-01-01T08:00:00Z
    Genre: Русское кино
    Artist: Николай Досталь
    Name: Монах и бес

    MediaInfo

    General
    Complete name : /Users/imac/HandBrake/Monax.i.bes.WEB-DL.720p.m4v
    Format : MPEG-4
    Codec ID : M4V
    File size : 3.59 GiB
    Duration : 1h 53mn
    Overall bit rate mode : Variable
    Overall bit rate : 4 544 Kbps
    Movie name : Монах и бес
    Performer : Николай Досталь
    Director : Николай Досталь
    Actor : Тимофей Трибунцев / Георгий Фетисов / Борис Каморзин / Роман Мадянов / Никита Тарасов / Сергей Барковский
    Screenplay by : Юрий Арабов
    Producer : Игорь Толстунов / Сергей Козлов / Александр Досталь
    Production studio : Эталон-фильм, Профит
    Genre : Русское кино
    ContentType : Short Film
    Description : Фантастическая история первой половины XIX века. В мужском монастыре появляется новый насельник Иван Семенович. Но вместе с монахом в монастырь проникают темные силы, которые материализуются в лице Легиона (так он представился Ивану). Легион избрал Ивана объектом своей дьявольской работы, всячески искушая его, чтобы сбить с избранного им пути служения Богу. Но чем сильнее искушение, тем крепче духовные силы Ивана.
    Recorded date : UTC 2016-01-01 08:00:00
    Encoded date : UTC 2016-10-07 08:40:51
    Tagged date : UTC 2016-10-07 09:40:21
    Copyright : © 2016 CD Land
    Cover : Yes
    Rating : None
    Title/Sort : Монах и бес
    LongDescription : Фантастическая история первой половины XIX века. В мужском монастыре появляется новый насельник Иван Семенович. Но вместе с монахом в монастырь проникают темные силы, которые материализуются в лице Легиона (так он представился Ивану). Легион избрал Ивана объектом своей дьявольской работы, всячески искушая его, чтобы сбить с избранного им пути служения Богу. Но чем сильнее искушение, тем крепче духовные силы Ивана.
    HDVideo : Yes
    AppleStoreCatalogID : 1161061202
    Vendor : Apple:vendor_id:2016-742184
    ContentRating : ru-movie|12+|200|
    Video #1
    ID : 1
    Format : AVC
    Format/Info : Advanced Video Codec
    Format profile : High@L3.1
    Format settings, CABAC : No
    Format settings, ReFrames : 2 frames
    Codec ID : avc1
    Codec ID/Info : Advanced Video Coding
    Duration : 1h 53mn
    Bit rate : 3 996 Kbps
    Width : 1 280 pixels
    Height : 692 pixels
    Display aspect ratio : 1.85:1
    Frame rate mode : Variable
    Frame rate : 24.000 fps
    Minimum frame rate : 23.810 fps
    Maximum frame rate : 24.390 fps
    Color space : YUV
    Chroma subsampling : 4:2:0
    Bit depth : 8 bits
    Scan type : Progressive
    Bits/(Pixel*Frame) : 0.188
    Stream size : 3.16 GiB (88%)
    Title : Main Program
    Language : Russian
    Encoded date : UTC 2016-10-07 08:40:51
    Tagged date : UTC 2016-10-07 08:42:08
    Color range : Limited
    Color primaries : BT.709
    Transfer characteristics : BT.709
    Matrix coefficients : BT.709
    Video #2
    ID : 5
    Format : JPEG
    Codec ID : jpeg
    Duration : 1h 53mn
    Bit rate mode : Variable
    Bit rate : 918 bps
    Width : 640 pixels
    Height : 346 pixels
    Display aspect ratio : 1.85:1
    Frame rate mode : Constant
    Frame rate : 0.002 fps
    Color space : YUV
    Chroma subsampling : 4:2:0
    Bit depth : 8 bits
    Compression mode : Lossy
    Bits/(Pixel*Frame) : 2.073
    Stream size : 1.09 MiB (0%)
    Title : Chapter Images
    Language : Russian
    Encoded date : UTC 2016-10-07 08:42:13
    Tagged date : UTC 2016-10-07 08:42:13
    Audio #1
    ID : 2
    Format : AAC
    Format/Info : Advanced Audio Codec
    Format profile : LC
    Codec ID : 40
    Duration : 1h 53mn
    Bit rate mode : Variable
    Bit rate : 156 Kbps
    Maximum bit rate : 243 Kbps
    Channel(s) : 2 channels
    Channel positions : Front: L R
    Sampling rate : 48.0 KHz
    Compression mode : Lossy
    Stream size : 126 MiB (3%)
    Title : Russian Stereo
    Language : Russian
    Encoded date : UTC 2016-10-07 08:40:51
    Tagged date : UTC 2016-10-07 08:41:11
    Audio #2
    ID : 3
    Format : AC-3
    Format/Info : Audio Coding 3
    Mode extension : CM (complete main)
    Format settings, Endianness : Big
    Codec ID : ac-3
    Duration : 1h 53mn
    Bit rate mode : Constant
    Bit rate : 384 Kbps
    Channel(s) : 6 channels
    Channel positions : Front: L C R, Side: L R, LFE
    Sampling rate : 48.0 KHz
    Bit depth : 16 bits
    Compression mode : Lossy
    Stream size : 311 MiB (8%)
    Title : Russian DD 5.1
    Language : Russian
    Encoded date : UTC 2016-10-07 08:40:51
    Tagged date : UTC 2016-10-07 08:41:11
    Menu #1
    00:00:00.000 : 1
    00:05:05.000 : 2
    00:10:23.791 : 3
    00:15:43.791 : 4
    00:20:55.791 : 5
    00:26:39.249 : 6
    00:32:24.165 : 7
    00:38:20.623 : 8
    00:44:23.206 : 9
    00:50:23.664 : 10
    00:56:04.372 : 11
    01:02:05.330 : 12
    01:07:42.829 : 13
    01:12:52.663 : 14
    01:17:59.163 : 15
    01:24:00.288 : 16
    01:29:15.454 : 17
    01:35:52.204 : 18
    01:41:12.120 : 19
    01:46:18.161 : 20
    Menu #2
    ID : 4
    Codec ID : text
    Duration : 1h 53mn
    Language : Russian
    Encoded date : UTC 2016-10-07 08:42:08
    Tagged date : UTC 2016-10-07 08:42:08
    00:00:00.000 : 1
    00:05:05.000 : 2
    00:10:23.791 : 3
    00:15:43.791 : 4
    00:20:55.791 : 5
    00:26:39.249 : 6
    00:32:24.165 : 7
    00:38:20.623 : 8
    00:44:23.206 : 9
    00:50:23.664 : 10
    00:56:04.372 : 11
    01:02:05.330 : 12
    01:07:42.829 : 13
    01:12:52.663 : 14
    01:17:59.163 : 15
    01:24:00.288 : 16
    01:29:15.454 : 17
    01:35:52.204 : 18
    01:41:12.120 : 19
    01:46:18.161 : 20
    Bit rate mode : VBR

    Скриншоты


    -

    Релиз подготовлен для просмотра на Apple TV, iPad, iPhone, iPod Touch.
    Для просмотра данного релиза на компьютере с ОС Windows рекомендуется использовать VLC media player
    Скачать .torrent

    Скачать торрент-файл бесплатно и на максимальной скорости!

    Как скачивать? · Что такое торрент? · Рейтинг и ограничения

    !ВНИМАНИЕ!
    Сайт не распространяет и не хранит электронные версии произведений, а занимается лишь лишь предоставлением доступа к создаваемому пользователями каталогу ссылок на торрент-файлы, которые содержат только списки хеш-сумм, убедительная просьба с жалобами обращаться напрямую к пользователю. Файлы для обмена на трекере предоставлены пользователями сайта, и администрация не несёт ответственности за их содержание. Просьба не заливать файлы, защищенные авторскими правами, а также файлы нелегального содержания!


    _________________
    [Профиль] [ЛС]
    Показать сообщения:    
    Ответить на тему

    Текущее время: Сегодня, в 18:08

    Часовой пояс: GMT + 2



    Вы не можете начинать темы
    Вы не можете отвечать на сообщения
    Вы не можете редактировать свои сообщения
    Вы не можете удалять свои сообщения
    Вы не можете голосовать в опросах
    Вы не можете прикреплять файлы к сообщениям
    Вы не можете скачивать файлы