BitTorrentTracker PerecTracker.org
BitTorrentTracker PerecTracker.org
    
Регистрация  ·  Вход
 
 · 
Забыли пароль?

  • Пенсильвания / Серии: 1-16 из 16 (Владимир Виноградов) [2015, детектив, экранизация, HDTVRip]

    Ответить на тему
     
    Автор Сообщение

    rechyn

    Создавать темы 07-Окт-2016 13:03

           

    [Цитировать]

    ПенсильванияГод выпуска: 2015
    Производство: Россия, АТОС-фильм
    Жанр: Криминал, драма
    Продолжительность: 00:45:00
    Субтитры: нет
    Режиссёр: Владимир Виноградов
    В ролях:
    Константин Крюков, Александр Домогаров, Дмитрий Ермак, Александра Ребенок, Игорь Верник, Ольга Дибцева, Александр Семчев, Андрей Тартаков, Игорь Филиппов, Евгения Дмитриева, Анна Казючиц, Максим Литовченко, Михаил Солодко, Дарья Семёнова, Дмитрий Блохин, Александр Пацевич, Александр Тараньжин, Александр Серов-Останкинский, Алексей Михайлов (II), Андрей Сорокин (II), Вера Воронкова, Виктория Романенко, Любовь Зайцева, Олег Новиков, Олег Осипов (II), Дмитрий Сутырин, Игорь Фурманюк, Ольга Хохлова, Владимир Храбров, Константин Чепурин, Кристина Кучеренко, Нана Муштакова, Галина Анисимова (II), Ирина Лазарева, Олег Дуленин, Леонид Закошанский, Татьяна Мухина (III), Олеся Остапенко, Дарья Снадина, Егор Тимцуник, Татьяна Виноградова
    Описание: За дикость нравов отдаленный поселок Поливаново в глуши средней полосы России прозван местными жителями штатом Пенсильвания. И не зря. То, что произошло здесь, оборачивается запутанным и драматичным делом со многими человеческими жертвами, и повергает в ужас даже видавших виды полицейских... В свой родной поселок на похороны матери приезжает известный журналист Козлов. Во время поминок в сельском доме пропадает его трехлетний сын. Няню мальчика находят мертвой на заднем дворе с пробитой головой. Местная полиция не спешит ловить преступника, поскольку дело запутанное. Козлов задействует свои связи в Москве, и в Поливаново направляют следственную группу в составе трех человек – следователя Морозова, оперативника Сергеева и эксперта Дворникову. Однако весь поселок что-то скрывает от приезжих слуг правопорядка…
    Релиз группа
    Все раздачи сериала
    Сэмпл
    Качество: HDTVRip
    Формат: AVI
    Видео кодек: XviD
    Аудио кодек: AC3
    Видео: 720x400 (1.80:1), 25 fps, XviD build 73 ~1448 kbps avg, 0.22 bit/pixel
    Аудио: 48 kHz, AC3 Dolby Digital, 2/0 (L,R) ch, ~192.00 kbps avg

    MI

    General
    Complete name : X:\раздачи\Пенсильвания.2016.HDTVRip.RG.Russkie.serialy.&.Files-x.Пенсильвания.2016.HDTVRip.RG.Russkie.serialy.&.Files-x.avi
    Format : AVI
    Format/Info : Audio Video Interleave
    File size : 599 MiB
    Duration : 47mn 9s
    Overall bit rate : 1 776 Kbps
    Writing application : VirtualDubMod 1.5.10.3 | www.virtualdub-fr.org || (build 2550/release)
    Writing library : VirtualDubMod build 2550/release
    Video
    ID : 0
    Format : MPEG-4 Visual
    Format profile : Advanced Simple@L5
    Format settings, BVOP : 1
    Format settings, QPel : No
    Format settings, GMC : No warppoints
    Format settings, Matrix : Custom
    Codec ID : XVID
    Codec ID/Hint : XviD
    Duration : 47mn 9s
    Bit rate : 1 574 Kbps
    Width : 720 pixels
    Height : 400 pixels
    Display aspect ratio : 16:9
    Frame rate : 25.000 fps
    Color space : YUV
    Chroma subsampling : 4:2:0
    Bit depth : 8 bits
    Scan type : Progressive
    Compression mode : Lossy
    Bits/(Pixel*Frame) : 0.219
    Stream size : 531 MiB (89%)
    Writing library : XviD 73
    Audio
    ID : 1
    Format : AC-3
    Format/Info : Audio Coding 3
    Mode extension : CM (complete main)
    Format settings, Endianness : Big
    Codec ID : 2000
    Duration : 47mn 9s
    Bit rate mode : Constant
    Bit rate : 192 Kbps
    Channel(s) : 2 channels
    Channel positions : Front: L R
    Sampling rate : 48.0 KHz
    Frame rate : 31.250 fps (1536 spf)
    Compression mode : Lossy
    Stream size : 64.8 MiB (11%)
    Alignment : Split accross interleaves
    Interleave, duration : 40 ms (1.00 video frame)
    Interleave, preload duration : 500 ms

    Скриншоты

    [URL=http://s020.radikal.ru/i703/1610/c6/d04493232d7f.jpg]
    Скачать .torrent

    Скачать торрент-файл бесплатно и на максимальной скорости!

    Как скачивать? · Что такое торрент? · Рейтинг и ограничения

    !ВНИМАНИЕ!
    Сайт не распространяет и не хранит электронные версии произведений, а занимается лишь лишь предоставлением доступа к создаваемому пользователями каталогу ссылок на торрент-файлы, которые содержат только списки хеш-сумм, убедительная просьба с жалобами обращаться напрямую к пользователю. Файлы для обмена на трекере предоставлены пользователями сайта, и администрация не несёт ответственности за их содержание. Просьба не заливать файлы, защищенные авторскими правами, а также файлы нелегального содержания!


    _________________
    [Профиль] [ЛС]
    Показать сообщения:    
    Ответить на тему

    Текущее время: Сегодня, в 03:17

    Часовой пояс: GMT + 2



    Вы не можете начинать темы
    Вы не можете отвечать на сообщения
    Вы не можете редактировать свои сообщения
    Вы не можете удалять свои сообщения
    Вы не можете голосовать в опросах
    Вы не можете прикреплять файлы к сообщениям
    Вы не можете скачивать файлы