BitTorrentTracker PerecTracker.org
BitTorrentTracker PerecTracker.org
    
Регистрация  ·  Вход
 
 · 
Забыли пароль?

  • Порки 3: Месть / Porky\'s revenge (Джеймс Комак / James Komack) [1985, США, Канада, комедия, HDTVRip 720p] AVO (А. Гаврилов) + VO + Sub Eng + Original Eng

    Ответить на тему
     
    Автор Сообщение

    Light

    Создавать темы 07-Окт-2016 00:30

           

    [Цитировать]

    Порки 3: Месть / Porky's revenge
    Страна: США, Канада
    Студия: Astral Bellevue Pathé
    Жанр: комедия
    Год выпуска: 1985
    Продолжительность: 01:28:58
    Перевод: Авторский (одноголосый закадровый) А. Гаврилов
    Перевод 2: Одноголосый закадровый
    Cубтитры: английские
    Оригинальная аудиодорожка: английский
    Режиссер: Джеймс Комак / James Komack
    В ролях: Дэн Монахан, Уайатт Найт, Тони Гэниос, Марк Херриер, Кэки Хантер, Скотт Коломби, Нэнси Парсонс, Чак Митчелл, Роуз МакВей, Фред Бух
    Описание: Годы проходят, но мысли в головах этих похотливых ребят и девушек так и не изменились. Все о чем они могут думать- это секс, и все что с ним связано.
    Повинуясь не прекращающемуся ни на секунду половому влечению, они то и дело оказываются в неимоверно смешных ситуациях, выпутаться из которых им помогает незаурядная смекалка и чувство юмора.
    У них миллион идей как опошлить выпускной вечер, как заставить несговорчивую учительницу поставить зачет, как расправиться с развратным мафиози и при этом от души посмеяться.

    Сэмпл: http://sendfile.su/1271389
    Тип релиза: HDTVRip 720p
    Контейнер: MKV
    Видео: 1280x720 (16:9), 25.000 fps, AVC, ~5979 Kbps, 0.260 bits/pixel
    Аудио: Russian, 48.0 KHz, AC3, 2 ch, 192 Kbps - Гаврилов
    Аудио 2: Russian, 48.0 KHz, AC3, 2 ch, 192 Kbps
    Аудио 3: English, 48.0 KHz, AC3, 2 ch, 256 Kbps
    Формат субтитров: softsub (SRT)

    MediaInfo

    General
    Unique ID : 171897078050522507094523337157777005595 (0x81522C498852D0D3A93C24BFC2A79C1B)
    Complete name : C:\Porky's revenge 1985 HDTV 720p.mkv
    Format : Matroska
    Format version : Version 4 / Version 2
    File size : 4.20 GiB
    Duration : 1h 28mn
    Overall bit rate : 6 753 Kbps
    Encoded date : UTC 2016-10-05 07:47:35
    Writing application : mkvmerge v7.0.0 ('Where We Going') 64bit built on Jun 9 2014 15:16:27
    Writing library : libebml v1.3.0 + libmatroska v1.4.1
    DURATION : 01:28:58.016000000
    NUMBER_OF_FRAMES : 166813
    NUMBER_OF_BYTES : 128112384
    _STATISTICS_WRITING_APP : mkvmerge v7.0.0 ('Where We Going') 64bit built on Jun 9 2014 15:16:27
    _STATISTICS_WRITING_DATE_UTC : 2016-10-05 07:47:35
    _STATISTICS_TAGS : BPS DURATION NUMBER_OF_FRAMES NUMBER_OF_BYTES
    Video
    ID : 1
    Format : AVC
    Format/Info : Advanced Video Codec
    Format profile : High@L4.1
    Format settings, CABAC : Yes
    Format settings, ReFrames : 8 frames
    Codec ID : V_MPEG4/ISO/AVC
    Duration : 1h 28mn
    Bit rate : 5 979 Kbps
    Width : 1 280 pixels
    Height : 720 pixels
    Display aspect ratio : 16:9
    Frame rate mode : Constant
    Frame rate : 25.000 fps
    Color space : YUV
    Chroma subsampling : 4:2:0
    Bit depth : 8 bits
    Scan type : Progressive
    Bits/(Pixel*Frame) : 0.260
    Stream size : 3.72 GiB (89%)
    Writing library : x264 core 148 r2692 64f4e24
    Encoding settings : cabac=1 / ref=9 / deblock=1:-3:-3 / analyse=0x3:0x133 / me=umh / subme=10 / psy=1 / psy_rd=1.00:0.00 / mixed_ref=1 / me_range=16 / chroma_me=1 / trellis=2 / 8x8dct=1 / cqm=0 / deadzone=21,11 / fast_pskip=1 / chroma_qp_offset=-2 / threads=12 / lookahead_threads=2 / sliced_threads=0 / nr=0 / decimate=0 / interlaced=0 / bluray_compat=0 / constrained_intra=0 / bframes=8 / b_pyramid=1 / b_adapt=2 / b_bias=0 / direct=1 / weightb=1 / open_gop=0 / weightp=2 / keyint=250 / keyint_min=25 / scenecut=40 / intra_refresh=0 / rc=crf / mbtree=0 / crf=17.5 / qcomp=0.60 / qpmin=0 / qpmax=69 / qpstep=4 / ip_ratio=1.40 / pb_ratio=1.15 / aq=1:0.90
    Default : Yes
    Forced : No
    Audio #1
    ID : 2
    Format : AC-3
    Format/Info : Audio Coding 3
    Mode extension : CM (complete main)
    Format settings, Endianness : Big
    Codec ID : A_AC3
    Duration : 1h 28mn
    Bit rate mode : Constant
    Bit rate : 192 Kbps
    Channel(s) : 2 channels
    Channel positions : Front: L R
    Sampling rate : 48.0 KHz
    Compression mode : Lossy
    Stream size : 122 MiB (3%)
    Title : Гаврилов
    Language : Russian
    Default : Yes
    Forced : No
    Audio #2
    ID : 3
    Format : AC-3
    Format/Info : Audio Coding 3
    Mode extension : CM (complete main)
    Format settings, Endianness : Big
    Codec ID : A_AC3
    Duration : 1h 28mn
    Bit rate mode : Constant
    Bit rate : 192 Kbps
    Channel(s) : 2 channels
    Channel positions : Front: L R
    Sampling rate : 48.0 KHz
    Compression mode : Lossy
    Stream size : 122 MiB (3%)
    Language : Russian
    Default : No
    Forced : No
    Audio #3
    ID : 4
    Format : AC-3
    Format/Info : Audio Coding 3
    Mode extension : CM (complete main)
    Format settings, Endianness : Big
    Codec ID : A_AC3
    Duration : 1h 28mn
    Bit rate mode : Constant
    Bit rate : 256 Kbps
    Channel(s) : 2 channels
    Channel positions : Front: L R
    Sampling rate : 48.0 KHz
    Compression mode : Lossy
    Stream size : 163 MiB (4%)
    Language : English
    Default : No
    Forced : No
    Text
    ID : 5
    Format : UTF-8
    Codec ID : S_TEXT/UTF8
    Codec ID/Info : UTF-8 Plain Text
    Title : SDH
    Language : English
    Default : No
    Forced : No

    Скриншоты

    Скачать .torrent

    Скачать торрент-файл бесплатно и на максимальной скорости!

    Как скачивать? · Что такое торрент? · Рейтинг и ограничения

    !ВНИМАНИЕ!
    Сайт не распространяет и не хранит электронные версии произведений, а занимается лишь лишь предоставлением доступа к создаваемому пользователями каталогу ссылок на торрент-файлы, которые содержат только списки хеш-сумм, убедительная просьба с жалобами обращаться напрямую к пользователю. Файлы для обмена на трекере предоставлены пользователями сайта, и администрация не несёт ответственности за их содержание. Просьба не заливать файлы, защищенные авторскими правами, а также файлы нелегального содержания!


    _________________
    [Профиль] [ЛС]
    Показать сообщения:    
    Ответить на тему

    Текущее время: Сегодня, в 11:02

    Часовой пояс: GMT + 2



    Вы не можете начинать темы
    Вы не можете отвечать на сообщения
    Вы не можете редактировать свои сообщения
    Вы не можете удалять свои сообщения
    Вы не можете голосовать в опросах
    Вы не можете прикреплять файлы к сообщениям
    Вы не можете скачивать файлы