BitTorrentTracker PerecTracker.org
BitTorrentTracker PerecTracker.org
    
Регистрация  ·  Вход
 
 · 
Забыли пароль?

  • Люк Кейдж / Luke Cage / Сезон: 1 / Серии: 1-13 из 13 (Пол МакГиган, Энди Годдар, Марк Йобст) [2016, Фантастика, боевик, триллер, криминал, WEBRip 720p ] MVO (BaibaKo) + Original

    Ответить на тему
     
    Автор Сообщение

    rechyn

    Создавать темы 06-Окт-2016 20:45

           

    [Цитировать]

    Люк Кейдж / Luke Cage

    Год выпуска: 2016
    Страна: США, ABC Television Studio, Marvel Entertainment
    Жанр: Фантастика, боевик, триллер, криминал
    Продолжительность: ~ 00:50:00
    Перевод: Профессиональный (многоголосый закадровый) BaibaKo
    Режиссёр: Пол МакГиган, Энди Годдар, Марк Йобст
    В ролях: Махершала Али, Майк Колтер, Фрэнки Фэйзон, Эрик Ларей Харви, Дариус Калеб, Симона Кук, Тео Росси, Фрэнк Уэйли
    Описание: Получив суперсилу в результате сорванного эксперимента, ошибочно обвиненный мужчина сбегает из тюрьмы, чтобы стать наемным супергероем.

    Релиз без рекламы
    Качество: WEBRip 720p
    Формат: MKV
    Видео: MPEG-4 AVC, ~ 4000 Кбит/с, 1280x720, 23,976 fps
    Аудио: AC3, 6 ch, 640 Кбит/с [Rus]
    Аудио 2: AC3, 6 ch, 640 Кбит/с [Eng]
    Субтитры: Нет

    MediaInfo

    Общее
    Уникальный идентификатор : 202561188080410512165562031708440722193 (0x9863DDA3116F03F99E9D0D91EB917B11)
    Полное имя : D:\Загрузки\Luke Cage (Season 01) BaibaKo720\Luke.Cage.s01e03.HD720p.WEBRip.Rus.Eng.BaibaKo.mkv
    Формат : Matroska
    Версия формата : Version 2
    Размер файла : 1,88 Гбайт
    Продолжительность : 56 м.
    Общий поток : 4806 Кбит/сек
    Дата кодирования : UTC 2016-10-01 22:22:08
    Программа кодирования : mkvmerge v7.8.0 ('River Man') 32bit built on Apr 3 2015 12:11:22
    Библиотека кодирования : libebml v1.3.1 + libmatroska v1.4.2
    Видео
    Идентификатор : 1
    Формат : AVC
    Формат/Информация : Advanced Video Codec
    Профиль формата : High@L4.1
    Параметр CABAC формата : Да
    Параметр ReFrames формата : 5 кадров
    Идентификатор кодека : V_MPEG4/ISO/AVC
    Продолжительность : 56 м.
    Битрейт : 3430 Кбит/сек
    Ширина : 1280 пикселей
    Высота : 720 пикселей
    Соотношение сторон : 16:9
    Режим частоты кадров : Постоянный
    Частота кадров : 23,976 (24000/1001) кадра/сек
    Цветовое пространство : YUV
    Субдискретизация насыщенности : 4:2:0
    Битовая глубина : 8 бит
    Тип развёртки : Прогрессивная
    Бит/(Пиксели*Кадры) : 0.155
    Размер потока : 1,34 Гбайт (71%)
    Default : Нет
    Forced : Нет
    Цветовой диапазон : Limited
    Коэффициенты матрицы : BT.709
    Аудио #1
    Идентификатор : 2
    Формат : AC-3
    Формат/Информация : Audio Coding 3
    Расширение режима : CM (complete main)
    Параметр Endianness формата : Big
    Идентификатор кодека : A_AC3
    Продолжительность : 56 м.
    Вид битрейта : Постоянный
    Битрейт : 640 Кбит/сек
    Каналы : 6 каналов
    Расположение каналов : Front: L C R, Side: L R, LFE
    Частота : 48,0 КГц
    Частота кадров : 31,250 кадров/сек (1536 spf)
    Метод сжатия : С потерями
    Задержка видео : -200 мс.
    Размер потока : 257 Мбайт (13%)
    Язык : Russian
    Default : Да
    Forced : Нет

    Скриншоты

    Ссылка на предыдущие и альтернативные раздачи

    http://perectracker.org/http://perectracker.org/tracker.php?nm=%D0%9B%D1%8E%D0%BA%20%D0%9A%D0%B5%D0%B9%D0%B4%D0%B6
    Скачать .torrent

    Скачать торрент-файл бесплатно и на максимальной скорости!

    Как скачивать? · Что такое торрент? · Рейтинг и ограничения

    !ВНИМАНИЕ!
    Сайт не распространяет и не хранит электронные версии произведений, а занимается лишь лишь предоставлением доступа к создаваемому пользователями каталогу ссылок на торрент-файлы, которые содержат только списки хеш-сумм, убедительная просьба с жалобами обращаться напрямую к пользователю. Файлы для обмена на трекере предоставлены пользователями сайта, и администрация не несёт ответственности за их содержание. Просьба не заливать файлы, защищенные авторскими правами, а также файлы нелегального содержания!


    _________________
    [Профиль] [ЛС]
    Показать сообщения:    
    Ответить на тему

    Текущее время: Сегодня, в 22:10

    Часовой пояс: GMT + 2



    Вы не можете начинать темы
    Вы не можете отвечать на сообщения
    Вы не можете редактировать свои сообщения
    Вы не можете удалять свои сообщения
    Вы не можете голосовать в опросах
    Вы не можете прикреплять файлы к сообщениям
    Вы не можете скачивать файлы