BitTorrentTracker PerecTracker.org
BitTorrentTracker PerecTracker.org
    
Регистрация  ·  Вход
 
 · 
Забыли пароль?

  • Бойтесь ходячих мертвецов / Fear the Walking Dead / Сезон: 2 / Серии: 1-15 из 15 (Адам Дэвидсон, Кари Скогланд, Стефан Шварц) [2016, ужасы, драма, WEB-DL 1080p] MVO (AMC) + Original + Eng Subs

    Ответить на тему
     
    Автор Сообщение

    rechyn

    Создавать темы 06-Окт-2016 20:39

           

    [Цитировать]

    -Бойтесь ходячих мертвецов | Fear the Walking Dead--• Год выпуска: 2016
    • Страна: США
    • Жанр: ужасы, драма
    • Продолжительность: ~ 00:43:00-• Перевод: Профессиональный (многоголосый закадровый) | AMC-• Режиссёр: Адам Дэвидсон, Кари Скогланд, Стефан Шварц-• В ролях: Клифф Кёртис, Ким Диккенс, Алисия Дебнем-Кери, Фрэнк Диллэйн, Рубен Блэйдс, Мерседес Масон, Колман Доминго, Лоренцо Джеймс Хенри, Элизабет Родригес, Тони Френч-• Описание: Действия сериала происходят параллельно с событиями зомби-апокалипсиса, показанными в сериале «Ходячие мертвецы», но в совершенно другом месте — Лос-Анджелесе. Акцент будет сделан на семейные отношения, в частности, проблемы отцов и детей. История вращается вокруг Шона — разведённого школьного учителя и Нэнси руководительницы женского совета. А так же детей Нэнси: Ника, который борется с наркотической зависимостью и амбициозной дочери Эшли.
    --Ссылка на предыдущие и альтернативные раздачи-• Качество: WEB-DL 1080p
    • Формат: MKV
    • Видео: H264, 1916x1076 (16:9), 25 fps, ~5150 kbps
    • Аудио #1: AC3, 48 kHz, 2 ch, 192 kbps, CBR - Rus
    • Аудио #2: AC3, 48 kHz, 6 ch, 384 kbps, CBR - Eng
    • Субтитры: английские
    -

    ✘ Релиз ✘

    сведение звука qqss44
    рекламы нет

    ✘ MediaInfo ✘

    Общее
    Уникальный идентификатор                 : 208950666757161874115573968757269638032 (0x9D326F41FE50B73F8E3A9ADC3A66AB90)
    Полное имя                               : X:\ATorrent\FTWD (Season 02) AMC 1080\FTWD.[S02E01].1080p.AMC.[qqss44].mkv
    Формат                                   : Matroska
    Версия формата                           : Version 2
    Размер файла                             : 1,70 Гбайт
    Продолжительность                        : 42 м.
    Общий поток                              : 5698 Кбит/сек
    Дата кодирования                         : UTC 2016-04-17 17:08:42
    Программа кодирования                    : mkvmerge v7.9.0 ('Birds') 64bit
    Библиотека кодирования                   : libebml v1.3.1 + libmatroska v1.4.2
    Видео
    Идентификатор                            : 1
    Формат                                   : AVC
    Формат/Информация                        : Advanced Video Codec
    Профиль формата                          : High@L4
    Параметр CABAC формата                   : Да
    Параметр ReFrames формата                : 4 кадра
    Идентификатор кодека                     : V_MPEG4/ISO/AVC
    Продолжительность                        : 42 м.
    Битрейт                                  : 5119 Кбит/сек
    Ширина                                   : 1916 пикселей
    Высота                                   : 1076 пикселей
    Соотношение сторон                       : 16:9
    Режим частоты кадров                     : Постоянный
    Частота кадров                           : 25 кадров/сек
    Цветовое пространство                    : YUV
    Субдискретизация насыщенности            : 4:2:0
    Битовая глубина                          : 8 бит
    Тип развёртки                            : Прогрессивная
    Бит/(Пиксели*Кадры)                      : 0.104
    Размер потока                            : 1,53 Гбайт (90%)
    Язык                                     : English
    Default                                  : Да
    Forced                                   : Нет
    Цветовой диапазон                        : Limited
    Основные цвета                           : BT.709
    Характеристики трансфера                 : BT.709
    Коэффициенты матрицы                     : BT.709
    Аудио #1
    Идентификатор                            : 2
    Формат                                   : AC-3
    Формат/Информация                        : Audio Coding 3
    Расширение режима                        : CM (complete main)
    Параметр Endianness формата              : Big
    Идентификатор кодека                     : A_AC3
    Продолжительность                        : 42 м.
    Вид битрейта                             : Постоянный
    Битрейт                                  : 192 Кбит/сек
    Каналы                                   : 2 канала
    Расположение каналов                     : Front: L R
    Частота                                  : 48,0 КГц
    Частота кадров                           : 31,250 кадров/сек (1536 spf)
    Метод сжатия                             : С потерями
    Размер потока                            : 58,8 Мбайт (3%)
    Язык                                     : Russian
    Default                                  : Да
    Forced                                   : Нет
    Аудио #2
    Идентификатор                            : 3
    Формат                                   : AC-3
    Формат/Информация                        : Audio Coding 3
    Расширение режима                        : CM (complete main)
    Параметр Endianness формата              : Big
    Идентификатор кодека                     : A_AC3
    Продолжительность                        : 42 м.
    Вид битрейта                             : Постоянный
    Битрейт                                  : 384 Кбит/сек
    Каналы                                   : 6 каналов
    Расположение каналов                     : Front: L C R, Side: L R, LFE
    Частота                                  : 48,0 КГц
    Частота кадров                           : 31,250 кадров/сек (1536 spf)
    Метод сжатия                             : С потерями
    Размер потока                            : 118 Мбайт (7%)
    Язык                                     : English
    Default                                  : Нет
    Forced                                   : Нет
    Текст
    Идентификатор                            : 4
    Формат                                   : UTF-8
    Идентификатор кодека                     : S_TEXT/UTF8
    Идентификатор кодека/Информация          : UTF-8 Plain Text
    Продолжительность                        : 41 м.
    Битрейт                                  : 44 бит/сек
    Count of elements                        : 463
    Размер потока                            : 13,5 Кбайт (0%)
    Язык                                     : English
    Default                                  : Нет
    Forced                                   : Нет

    ✘ Скриншоты ✘

    -
    Скачать .torrent

    Скачать торрент-файл бесплатно и на максимальной скорости!

    Как скачивать? · Что такое торрент? · Рейтинг и ограничения

    !ВНИМАНИЕ!
    Сайт не распространяет и не хранит электронные версии произведений, а занимается лишь лишь предоставлением доступа к создаваемому пользователями каталогу ссылок на торрент-файлы, которые содержат только списки хеш-сумм, убедительная просьба с жалобами обращаться напрямую к пользователю. Файлы для обмена на трекере предоставлены пользователями сайта, и администрация не несёт ответственности за их содержание. Просьба не заливать файлы, защищенные авторскими правами, а также файлы нелегального содержания!


    _________________
    [Профиль] [ЛС]
    Показать сообщения:    
    Ответить на тему

    Текущее время: Сегодня, в 14:44

    Часовой пояс: GMT + 2



    Вы не можете начинать темы
    Вы не можете отвечать на сообщения
    Вы не можете редактировать свои сообщения
    Вы не можете удалять свои сообщения
    Вы не можете голосовать в опросах
    Вы не можете прикреплять файлы к сообщениям
    Вы не можете скачивать файлы