BitTorrentTracker PerecTracker.org
BitTorrentTracker PerecTracker.org
    
Регистрация  ·  Вход
 
 · 
Забыли пароль?

  • Тонкий лёд / Серии: 1-12 из 12 (Александр Франскевич-Лайе) [2015, Семейная драма, HDTVRip]

    Ответить на тему
     
    Автор Сообщение

    rechyn

    Создавать темы 06-Окт-2016 20:31

           

    [Цитировать]

    Тонкий лёд
    -Год выпуска: 2015
    Производство: Россия, Первый канал, Студия Бонанза, ПРО-СИНЕМА Продакшн
    Жанр: Семейная драма
    Продолжительность: 00:50:00
    Субтитры: Нет

    Режиссёр: Александр Франскевич-Лайе
    В ролях: Алексей Гуськов, Екатерина Гусева, Егор Бероев, Андрей Руденский, Ян Цапник, Виктория Маслова, Наталья Рудова, Александр Пашков, Лидия Вележева, Игорь Угольников, Светлана Норбаева, Владимир Гостюхин, Елена Пастревич, Владимир Мищанчук, Кирилл Комаров, Андрей Лукьянов, Светлана Никифорова, Ольга Бранкевич, Анна Маланкина, Олеся Грибок

    Описание: Порядок жизни в этой семье долгие годы диктовался волей Игоря Палагина, мужа и отца, успешного строительного магната с авторитарным стилем мышления. Но он и представить не мог, что случайная встреча его молодой жены, матери двоих детей Ирины с бизнесменом и автогонщиком Андреем Гаврюшовым зайдет настолько далеко. В деловой среде не место семейным скандалам! Но на что способен каждый из них в диаметрально противоположном стремлении — обрести личное счастье и сохранить семью?-Доп. информация: Огромная благодарность ValkiriaGF за созданный постер к раздаче-Релиз группа: -Все раздачи сериала / Сэмпл-Качество: HDTVRip
    Формат: AVI
    Видео кодек: XviD
    Аудио кодек: AC3
    Видео: 720x400 (16:9), 25.000 fps, XviD build 73, 1799 Kbps, 0.25 bits/(pixel
    Аудио: 44.1 kHz, AC3 Dolby Digital, 2 ch, 192 Kbps

    MI

    General
    Complete name : Downloads\Tonkij ljod.HDTVRip.GeneralFilm
    Format : AVI
    Format/Info : Audio Video Interleave
    File size : 732 MiB
    Duration : 51mn 9s
    Overall bit rate : 2 001 Kbps
    Writing application : VirtualDubMod 1.5.10.3 (build 2550/release)
    Writing library : VirtualDubMod build 2550/release
    Video #0
    ID : 0
    Format : MPEG-4 Visual
    Format profile : Advanced Simple@L5
    Format settings, BVOP : 1
    Format settings, QPel : No
    Format settings, GMC : No warppoints
    Format settings, Matrix : Custom
    Codec ID : XVID
    Codec ID/Hint : XviD
    Duration : 51mn 9s
    Bit rate : 1 799 Kbps
    Width : 720 pixels
    Height : 400 pixels
    Display aspect ratio : 16:9
    Frame rate : 25.000 fps
    Color space : YUV
    Chroma subsampling : 4:2:0
    Bit depth : 8 bits
    Scan type : Progressive
    Compression mode : Lossy
    Bits/(Pixel*Frame) : 0.250
    Stream size : 658 MiB (90%)
    Writing library : XviD 73
    Audio #1
    ID : 1
    Format : AC-3
    Format/Info : Audio Coding 3
    Mode extension : CM (complete main)
    Format settings, Endianness : Big
    Codec ID : 2000
    Duration : 51mn 9s
    Bit rate mode : Constant
    Bit rate : 192 Kbps
    Channel(s) : 2 channels
    Channel positions : Front: L R
    Sampling rate : 48.0 KHz
    Bit depth : 16 bits
    Compression mode : Lossy
    Stream size : 70.3 MiB (10%)
    Alignment : Split accross interleaves
    Interleave, duration : 40 ms (1.00 video frame)
    Interleave, preload duration : 500 ms

    Скриншоты

    Скачать .torrent

    Скачать торрент-файл бесплатно и на максимальной скорости!

    Как скачивать? · Что такое торрент? · Рейтинг и ограничения

    !ВНИМАНИЕ!
    Сайт не распространяет и не хранит электронные версии произведений, а занимается лишь лишь предоставлением доступа к создаваемому пользователями каталогу ссылок на торрент-файлы, которые содержат только списки хеш-сумм, убедительная просьба с жалобами обращаться напрямую к пользователю. Файлы для обмена на трекере предоставлены пользователями сайта, и администрация не несёт ответственности за их содержание. Просьба не заливать файлы, защищенные авторскими правами, а также файлы нелегального содержания!


    _________________
    [Профиль] [ЛС]
    Показать сообщения:    
    Ответить на тему

    Текущее время: Сегодня, в 18:05

    Часовой пояс: GMT + 2



    Вы не можете начинать темы
    Вы не можете отвечать на сообщения
    Вы не можете редактировать свои сообщения
    Вы не можете удалять свои сообщения
    Вы не можете голосовать в опросах
    Вы не можете прикреплять файлы к сообщениям
    Вы не можете скачивать файлы