BitTorrentTracker PerecTracker.org
BitTorrentTracker PerecTracker.org
    
Регистрация  ·  Вход
 
 · 
Забыли пароль?

  • Красная шапочка / The Red Hood Setup / Kipa aduma (Арнон Задок / Arnon Zadok) [2014, Израиль, боевик, криминал, детектив, HDTVRip] + Sub Rus, Heb + Original Heb

    Ответить на тему
     
    Автор Сообщение

    Light

    Создавать темы 06-Окт-2016 20:20

           

    [Цитировать]

    Красная шапочка / The Red Hood Setup / Kipa aduma
    Страна: Израиль
    Жанр: боевик, криминал, детектив
    Год выпуска: 2014
    Продолжительность: 01:30:37
    Перевод: Субтитры
    Cубтитры: русские (softsub, ASS), иврит (hardsub)
    Оригинальная аудиодорожка: иврит, русский
    Режиссер: Арнон Задок / Arnon Zadok
    В ролях: Аврахам Авив Алуш, Даниэль Галь
    Описание: Абутбуль, член марокканской мафиозной группировки, после шести лет заключения, проведенных в русской тюрьме, возвращается в Израиль, где к этому времени русская мафия заметно потеснила марокканцев. Чтобы противостоять конкуренту, марокканцы решают ликвидировать главаря русской мафии Максимова, и Абутбуль - тот человек, который способен это сделать. Для устранения Максимова, Абутбуль привлекает 17-летнюю русскую красавицу, ещё школьницу, Катю...
    Доп. информация:
    Половина фильма на русском языке
    Сэмпл: http://www.mediafire.com/file/71cms3bucvrq2sa/Sample_The.Red.Hood.Setup.avi
    Качество видео: HDTVRip
    Формат видео: AVI
    Видео: XviD 624х352 16:9 25 кадров/сек 943 Кбит/сек
    Аудио: MP3 48 КГц 2 канала 128 Кбит/сек
    Формат субтитров: softsub (ASS)

    Образец субтитров

    Dialogue: 0,0:08:17.18,0:08:22.18,Default,,0,0,0,,Ты долго отсутствовал, а?
    Dialogue: 0,0:08:24.06,0:08:27.61,Default,,0,0,0,,6 лет.
    Dialogue: 0,0:08:27.62,0:08:31.13,Default,,0,0,0,,Ты стоял здесь, на этом самом месте,
    Dialogue: 0,0:08:31.14,0:08:34.21,Default,,0,0,0,,и говорил, что принесёшь мне в 5 раз больше.
    Dialogue: 0,0:08:34.22,0:08:36.13,Default,,0,0,0,,А я спросил тебя:
    Dialogue: 0,0:08:36.14,0:08:38.69,Default,,0,0,0,,"Можно доверять этой нееврейке?
    Dialogue: 0,0:08:38.70,0:08:41.51,Default,,0,0,0,,Что ты сказал?..
    Dialogue: 0,0:08:41.61,0:08:43.04,Default,,0,0,0,,А?
    Dialogue: 0,0:08:43.10,0:08:45.57,Default,,0,0,0,,Ты сказал, что ручаешься за неё.
    Dialogue: 0,0:08:45.58,0:08:49.69,Default,,0,0,0,,И я дал тебе пакет в полной уверенности.
    Dialogue: 0,0:08:49.70,0:08:52.33,Default,,0,0,0,,Ты ушёл и не вернулся.
    Dialogue: 0,0:08:52.34,0:08:55.34,Default,,0,0,0,,На это я сказал тебе что-нибудь?
    Dialogue: 0,0:08:55.44,0:08:57.96,Default,,0,0,0,,Я должен был оставить тебя там, гнить.
    Dialogue: 0,0:08:57.98,0:09:01.69,Default,,0,0,0,,Но есть шанс, маленький такой,
    Dialogue: 0,0:09:01.70,0:09:06.69,Default,,0,0,0,,что, может быть, ты сможешь\Nвозместить мне весь ущерб,
    Dialogue: 0,0:09:06.70,0:09:11.49,Default,,0,0,0,,если сделаешь то, что мне нужно.
    Dialogue: 0,0:09:11.50,0:09:15.53,Default,,0,0,0,,Я сожалею, Виктор, но я завязал.
    Dialogue: 0,0:09:15.54,0:09:19.01,Default,,0,0,0,,Я вне игры.
    Dialogue: 0,0:09:19.02,0:09:24.02,Default,,0,0,0,,Дайте нам поговорить.
    Dialogue: 0,0:09:32.10,0:09:36.85,Default,,0,0,0,,Абутбуль.
    Dialogue: 0,0:09:36.86,0:09:42.93,Default,,0,0,0,,Я рад за тебя. Я понимаю, конечно,\Nтебе было тяжело там. Понимаю.
    Dialogue: 0,0:09:43.02,0:09:45.08,Default,,0,0,0,,Садись.

    MediaInfo

    Общее
    Полное имя : The Red Hood Setup.avi
    Формат : AVI
    Формат/Информация : Audio Video Interleave
    Размер файла : 702 Мбайт
    Продолжительность : 1 ч. 30 м.
    Режим общего битрейта : Переменный
    Общий поток : 1083 Кбит/сек
    Программа кодирования : VirtualDubMod 1.5.10.2 (build 2540/release)
    Библиотека кодирования : VirtualDubMod build 2540/release
    Видео
    Идентификатор : 0
    Формат : MPEG-4 Visual
    Профиль формата : Advanced Simple@L5
    Параметр BVOP формата : 2
    Параметр QPel формата : Нет
    Параметр GMC формата : Без точки перехода
    Параметр матрицы формата : Default (H.263)
    Идентификатор кодека : XVID
    Идентификатор кодека/Подсказка : XviD
    Продолжительность : 1 ч. 30 м.
    Битрейт : 943 Кбит/сек
    Ширина : 624 пикселя
    Высота : 352 пикселя
    Соотношение сторон : 16:9
    Частота кадров : 25,000 кадров/сек
    Цветовое пространство : YUV
    Субдискретизация насыщенности : 4:2:0
    Битовая глубина : 8 бит
    Тип развёртки : Чересстрочная
    Порядок развёртки : Нижнее поле первое
    Метод сжатия : С потерями
    Бит/(Пиксели*Кадры) : 0.172
    Размер потока : 611 Мбайт (87%)
    Библиотека кодирования : XviD 64
    Аудио
    Идентификатор : 1
    Формат : MPEG Audio
    Версия формата : Version 1
    Профиль формата : Layer 3
    Режим : Joint stereo
    Расширение режима : MS Stereo
    Идентификатор кодека : 55
    Идентификатор кодека/Подсказка : MP3
    Продолжительность : 1 ч. 30 м.
    Вид битрейта : Переменный
    Битрейт : 128 Кбит/сек
    Каналы : 2 канала
    Частота : 48,0 КГц
    Метод сжатия : С потерями
    Размер потока : 82,2 Мбайт (12%)
    Выравнивание : Соединение по промежуткам
    Продолжительность промежутка : 24 мс. (0,60 видеокадр)
    Время предзагрузки промежутка : 520 мс.
    Библиотека кодирования : LAME3.90.
    Настройки программы : -m j -V 4 -q 2 -lowpass 17.6 --abr 128

    Скриншот c названием фильма

    Скриншоты




    Скачать .torrent

    Скачать торрент-файл бесплатно и на максимальной скорости!

    Как скачивать? · Что такое торрент? · Рейтинг и ограничения

    !ВНИМАНИЕ!
    Сайт не распространяет и не хранит электронные версии произведений, а занимается лишь лишь предоставлением доступа к создаваемому пользователями каталогу ссылок на торрент-файлы, которые содержат только списки хеш-сумм, убедительная просьба с жалобами обращаться напрямую к пользователю. Файлы для обмена на трекере предоставлены пользователями сайта, и администрация не несёт ответственности за их содержание. Просьба не заливать файлы, защищенные авторскими правами, а также файлы нелегального содержания!


    _________________
    [Профиль] [ЛС]
    Показать сообщения:    
    Ответить на тему

    Текущее время: Сегодня, в 14:05

    Часовой пояс: GMT + 2



    Вы не можете начинать темы
    Вы не можете отвечать на сообщения
    Вы не можете редактировать свои сообщения
    Вы не можете удалять свои сообщения
    Вы не можете голосовать в опросах
    Вы не можете прикреплять файлы к сообщениям
    Вы не можете скачивать файлы