Register  ·  Log in
Forgot password?

  • Монах и бес (Николай Досталь) [2016, Комедия, фантастика, WEB-DLRip]

    Reply to topic
    Author Message


    Post 06-Oct-2016 17:10



    Монах и бес
    Жанр: Комедия, фантастика
    Год выпуска: 2016
    Продолжительность: 01:53:03
    Режиссер: Николай Досталь
    В ролях: Тимофей Трибунцев, Георгий Фетисов, Борис Каморзин, Роман Мадянов, Никита Тарасов, Сергей Барковский
    Описание: Фантастическая история первой половины XIX века. В мужском монастыре появляется новый насельник Иван Семенович. Но вместе с монахом в монастырь проникают темные силы, которые материализуются в лице Легиона (так он представился Ивану). Легион избрал Ивана объектом своей дьявольской работы, всячески искушая его, чтобы сбить с избранного им пути служения Богу. Но чем сильнее искушение, тем крепче духовные силы Ивана.
    Качество видео: WEB-DLRip
    Исходник: [Monax.i.Bes.2O16.O.WEB-DL.1O8Op]
    Формат видео: AVI
    Видео: 720x384 (1.88:1), 24.000 fps, XviD build 65 ~1455 kbps avg, 0.22 bit/pixel
    Аудио: 48 kHz, AC3 Dolby Digital, 3/2 (L,C,R,l,r) + LFE ch, ~384 kbps
    Rip by Ториял


    Format : AVI
    Format/Info : Audio Video Interleave
    File size : 1.46 GiB
    Duration : 1h 53mn
    Overall bit rate : 1 849 Kbps
    Writing application : VirtualDubMod | || (build 2550/release)
    Writing library : VirtualDubMod build 2550/release
    ID : 0
    Format : MPEG-4 Visual
    Format profile : Advanced Simple@L5
    Format settings, BVOP : 1
    Format settings, QPel : No
    Format settings, GMC : No warppoints
    Format settings, Matrix : Custom
    Codec ID : XVID
    Codec ID/Hint : XviD
    Duration : 1h 53mn
    Bit rate : 1 456 Kbps
    Width : 720 pixels
    Height : 384 pixels
    Display aspect ratio : 1.85:1
    Frame rate : 24.000 fps
    Color space : YUV
    Chroma subsampling : 4:2:0
    Bit depth : 8 bits
    Scan type : Progressive
    Compression mode : Lossy
    Bits/(Pixel*Frame) : 0.219
    Stream size : 1.15 GiB (79%)
    Writing library : XviD 65
    ID : 1
    Format : AC-3
    Format/Info : Audio Coding 3
    Mode extension : CM (complete main)
    Format settings, Endianness : Big
    Codec ID : 2000
    Duration : 1h 53mn
    Bit rate mode : Constant
    Bit rate : 384 Kbps
    Channel(s) : 6 channels
    Channel positions : Front: L C R, Side: L R, LFE
    Sampling rate : 48.0 KHz
    Frame rate : 31.250 fps (1536 spf)
    Compression mode : Lossy
    Stream size : 311 MiB (21%)
    Alignment : Split accross interleaves
    Interleave, duration : 42 ms (1.00 video frame)
    Interleave, preload duratio : 500 ms


    Download .torrent

    Download free and at maximum speed!

    How to Download? · What is a torrent? · Ratings and Limitations

    The site does not extend and does not store electronic(digital) versions of products, and only gives access to a reference catalogue created by users on torrent-files which contain only lists of the hash-sums, the earnest entreaty, with complaints(abuse) to access directly to the user. Files for an exchange on tracker are given by users of a site, and the administration does not bear the responsibility for their maintenance. The request to not fill in the files protected by copyrights, and also files of the illegal maintenance!

    [Profile] [PM]
    Display posts from previous:    
    Reply to topic

    The time now is: Today 13:19

    All times are GMT + 3 Hours

    You cannot post new topics in this forum
    You cannot reply to topics in this forum
    You cannot edit your posts in this forum
    You cannot delete your posts in this forum
    You cannot vote in polls in this forum
    You cannot attach files in this forum
    You cannot download files in this forum