BitTorrentTracker PerecTracker.org
BitTorrentTracker PerecTracker.org
    
Регистрация  ·  Вход
 
 · 
Забыли пароль?

  • [ATV3] После Валькирии: Рассвет четвертого Рейха / Beyond Valkyrie: Dawn of the 4th Reich (Клаудио Фах / Claudio Fäh ) [2016, США, Боевик, военный, история, WEB-DL, HD (1080p)] MVO + Original + sub (eng)

    Ответить на тему
     
    Автор Сообщение

    rechyn

    Создавать темы 06-Окт-2016 16:10

           

    [Цитировать]

    После Валькирии: Рассвет четвертого Рейха / Beyond Valkyrie: Dawn of the 4th Reich
    -
    -Год выпуска: 2016
    Страна: США
    Жанр: Боевик, военный, история
    Продолжительность: 01:40:34
    Перевод: Многоголосый закадровый (iTunes)
    Оригинальная аудиодорожка: Есть
    Cубтитры: Английские форсированные
    Режиссёр: Клаудио Фах
    Сценарий: Роберт Хенни, Чад Ло, Дон Майкл Пол
    Продюсер: Джеффри Бич, Филлип Дж. Рот, Yanko Ushatov
    Оператор: Мартин Чичов
    Художник: Jana Grazer, Ольга Мекикчиева
    Монтаж: Джон Гилберт
    В ролях: Шон Патрик Флэнери, Том Сайзмор, Кип Парду, Стивен Лэнг, Рутгер Хауэр, Эрик Ладин, Йоханнес Херршманн, Павел Личникофф, Tom Padley, Юли Энгельбрехт
    Мировая премьера: 27 сентября 2016
    Описание: Яркий триллер с передовых позиций Второй мировой войны от создателей игры "Company of Heroes" с участием Шона Патрика Флэнери, Тома Сайзмора, Кипа Парду, Стивена Лэнга и Рутгера Хауэра. Цель операции "Валькирия" - убийство Адольфа Гитлера; союзная боевая группа готовит вывоз человека, назначенного править послевоенной Германией. Но все меняется после провала операции "Валькирия". Теперь неожиданным союзникам придется работать вместе, чтобы воспрепятсвовать отьезду группы нацистких офицеров в Аргентину с целью организации Четвертого Рейха.-Качество исходника: WEB-DL 1080p (NNMClub)
    Качество: WEB-DL
    Тип: HD (1080p)
    Контейнер: M4V
    Видео: H.264, 1916x1032, 1.85:1, 5 263 Kbps, 23.976 fps
    Аудио 1: Русский/Многоголосый закадровый (iTunes), AAC / 2.0 / 160 Kbps / 48.0 KHz
    Аудио 2: Английский/Оригинальная дорожка , AAC / 2.0 / 160 Kbps / 48.0 KHz
    Аудио 3: Русский/Многоголосый закадровый (iTunes), AC-3 / 5.1 / 384 Kbps / 48.0 KHz
    Аудио 4: Английский/Оригинальная дорожка , AC-3 / 5.1 / 384 Kbps / 48.0 KHz
    Субтитры: Английские форсированные
    -

    iTunes Meta Tags

    Sort Name: Beyond Valkyrie: Dawn of the Fourth Reich
    XID: Apple:vendor_id:2016-934596
    contentID: 1144317017
    Copyright: © 2016 Sony Pictures Worldwide Acquisitions Inc. All Rights Reserved.
    Screenwriters: Роберт Хенни, Чад Ло, Дон Майкл Пол
    Producers: Джеффри Бич, Филлип Дж. Рот, Yanko Ushatov
    Director: Клаудио Фах
    Cast: Шон Патрик Флэнери, Том Сайзмор, Кип Парду, Стивен Лэнг, Рутгер Хауэр, Эрик Ладин, Йоханнес Херршманн, Павел Личникофф, Tom Padley, Юли Энгельбрехт
    Studio: Stage 6 Films
    Rating: 5
    Long Description: Яркий триллер с передовых позиций Второй мировой войны от создателей игры "Company of Heroes" с участием Шона Патрика Флэнери, Тома Сайзмора, Кипа Парду, Стивена Лэнга и Рутгера Хауэра. Цель операции "Валькирия" - убийство Адольфа Гитлера; союзная боевая группа готовит вывоз человека, назначенного править послевоенной Германией. Но все меняется после провала операции "Валькирия". Теперь неожиданным союзникам придется работать вместе, чтобы воспрепятсвовать отьезду группы нацистких офицеров в Аргентину с целью организации Четвертого Рейха.
    Description: Яркий триллер с передовых позиций Второй мировой войны от создателей игры "Company of Heroes" с участием Шона Патрика Флэнери, Тома Сайзмора, Кипа Парду, Стивена Лэнга и Рутгера Хауэра. Цель операции "Валькирия" - убийство Адольфа Гитлера; союзная боевая группа готовит вывоз человека, назначенного править послевоенной Германией.
    Release Date: 2016-09-27T08:00:00Z
    Genre: Action & Adventure
    Artist: Claudio Fah
    Name: Beyond Valkyrie: Dawn of the Fourth Reich

    MediaInfo

    General
    Complete name : /Users/imac/HandBrake/Beyond.Valkyrie.Dawn.of.the.Fourth.Reich.WEB-DL.1080p.m4v
    Format : MPEG-4
    Codec ID : M4V
    File size : 4.47 GiB
    Duration : 1h 40mn
    Overall bit rate mode : Variable
    Overall bit rate : 6 358 Kbps
    Movie name : Beyond Valkyrie: Dawn of the Fourth Reich
    Performer : Claudio Fah
    Director : Клаудио Фах
    Actor : Шон Патрик Флэнери / Том Сайзмор / Кип Парду / Стивен Лэнг / Рутгер Хауэр / Эрик Ладин / Йоханнес Херршманн / Павел Личникофф / Tom Padley / Юли Энгельбрехт
    Screenplay by : Роберт Хенни / Чад Ло / Дон Майкл Пол
    Producer : Джеффри Бич / Филлип Дж. Рот / Yanko Ushatov
    Production studio : Stage 6 Films
    Genre : Action & Adventure
    ContentType : Short Film
    Description : Яркий триллер с передовых позиций Второй мировой войны от создателей игры "Company of Heroes" с участием Шона Патрика Флэнери, Тома Сайзмора, Кипа Парду, Стивена Лэнга и Рутгера Хауэра. Цель операции "Валькирия" - убийство Адольфа Гитлера; союзная боевая группа готовит вывоз человека, назначенного править послевоенной Германией.
    Recorded date : UTC 2016-09-27 08:00:00
    Encoded date : UTC 2016-10-05 13:03:28
    Tagged date : UTC 2016-10-05 13:06:55
    Copyright : © 2016 Sony Pictures Worldwide Acquisitions Inc. All Rights Reserved.
    Cover : Yes
    Rating : None
    Title/Sort : Beyond Valkyrie: Dawn of the Fourth Reich
    LongDescription : Яркий триллер с передовых позиций Второй мировой войны от создателей игры "Company of Heroes" с участием Шона Патрика Флэнери, Тома Сайзмора, Кипа Парду, Стивена Лэнга и Рутгера Хауэра. Цель операции "Валькирия" - убийство Адольфа Гитлера; союзная боевая группа готовит вывоз человека, назначенного править послевоенной Германией. Но все меняется после провала операции "Валькирия". Теперь неожиданным союзникам придется работать вместе, чтобы воспрепятсвовать отьезду группы нацистких офицеров в Аргентину с целью организации Четвертого Рейха.
    AppleStoreCatalogID : 1144317017
    Vendor : Apple:vendor_id:2016-934596
    ContentRating : mpaa|R|400|
    Video #1
    ID : 1
    Format : AVC
    Format/Info : Advanced Video Codec
    Format profile : High@L4
    Format settings, CABAC : Yes
    Format settings, ReFrames : 4 frames
    Codec ID : avc1
    Codec ID/Info : Advanced Video Coding
    Duration : 1h 40mn
    Bit rate : 5 263 Kbps
    Width : 1 916 pixels
    Height : 1 032 pixels
    Display aspect ratio : 1.85:1
    Frame rate mode : Variable
    Frame rate : 23.976 fps
    Minimum frame rate : 23.810 fps
    Maximum frame rate : 24.390 fps
    Color space : YUV
    Chroma subsampling : 4:2:0
    Bit depth : 8 bits
    Scan type : Progressive
    Bits/(Pixel*Frame) : 0.111
    Stream size : 3.70 GiB (83%)
    Title : Main Program
    Language : English
    Encoded date : UTC 2016-10-05 13:03:28
    Tagged date : UTC 2016-10-05 13:03:36
    Color range : Limited
    Color primaries : BT.709
    Transfer characteristics : BT.709
    Matrix coefficients : BT.709
    Video #2
    ID : 8
    Format : JPEG
    Codec ID : jpeg
    Duration : 1h 40mn
    Bit rate mode : Variable
    Bit rate : 1 093 bps
    Width : 640 pixels
    Height : 344 pixels
    Display aspect ratio : 1.85:1
    Frame rate mode : Variable
    Frame rate : 0.003 fps
    Minimum frame rate : 0.002 fps
    Maximum frame rate : 0.006 fps
    Color space : YUV
    Chroma subsampling : 4:2:0
    Bit depth : 8 bits
    Compression mode : Lossy
    Bits/(Pixel*Frame) : 1.655
    Stream size : 711 KiB (0%)
    Title : Chapter Images
    Language : English
    Encoded date : UTC 2016-10-05 13:03:44
    Tagged date : UTC 2016-10-05 13:03:45
    Audio #1
    ID : 2
    Format : AAC
    Format/Info : Advanced Audio Codec
    Format profile : LC
    Codec ID : 40
    Duration : 1h 40mn
    Bit rate mode : Variable
    Bit rate : 157 Kbps
    Maximum bit rate : 237 Kbps
    Channel(s) : 2 channels
    Channel positions : Front: L R
    Sampling rate : 48.0 KHz
    Compression mode : Lossy
    Stream size : 113 MiB (2%)
    Title : Russian Stereo
    Language : Russian
    Encoded date : UTC 2016-10-05 13:03:28
    Tagged date : UTC 2016-10-05 13:03:37
    Audio #2
    ID : 3
    Format : AAC
    Format/Info : Advanced Audio Codec
    Format profile : LC
    Codec ID : 40
    Duration : 1h 40mn
    Bit rate mode : Variable
    Bit rate : 159 Kbps
    Maximum bit rate : 242 Kbps
    Channel(s) : 2 channels
    Channel positions : Front: L R
    Sampling rate : 48.0 KHz
    Compression mode : Lossy
    Stream size : 114 MiB (3%)
    Title : English Stereo
    Language : English
    Encoded date : UTC 2016-10-05 13:03:28
    Tagged date : UTC 2016-10-05 13:03:37
    Audio #3
    ID : 4
    Format : AC-3
    Format/Info : Audio Coding 3
    Mode extension : CM (complete main)
    Format settings, Endianness : Big
    Codec ID : ac-3
    Duration : 1h 40mn
    Bit rate mode : Constant
    Bit rate : 384 Kbps
    Channel(s) : 6 channels
    Channel positions : Front: L C R, Side: L R, LFE
    Sampling rate : 48.0 KHz
    Bit depth : 16 bits
    Compression mode : Lossy
    Stream size : 276 MiB (6%)
    Title : Russian DD 5.1
    Language : Russian
    Encoded date : UTC 2016-10-05 13:03:28
    Tagged date : UTC 2016-10-05 13:03:36
    Audio #4
    ID : 5
    Format : AC-3
    Format/Info : Audio Coding 3
    Mode extension : CM (complete main)
    Format settings, Endianness : Big
    Codec ID : ac-3
    Duration : 1h 40mn
    Bit rate mode : Constant
    Bit rate : 384 Kbps
    Channel(s) : 6 channels
    Channel positions : Front: L C R, Side: L R, LFE
    Sampling rate : 48.0 KHz
    Bit depth : 16 bits
    Compression mode : Lossy
    Stream size : 276 MiB (6%)
    Title : English DD 5.1
    Language : English
    Encoded date : UTC 2016-10-05 13:03:28
    Tagged date : UTC 2016-10-05 13:03:36
    Text
    ID : 6
    Format : Timed Text
    Muxing mode : sbtl
    Codec ID : tx3g
    Duration : 1h 23mn
    Bit rate mode : Variable
    Bit rate : 3 bps
    Stream size : 1.80 KiB (0%)
    Title : English forced
    Language : English
    Encoded date : UTC 2016-10-05 13:03:28
    Tagged date : UTC 2016-10-05 13:03:36
    Menu #1
    00:00:00.000 : 1
    00:05:01.801 : 2
    00:09:38.661 : 3
    00:18:20.849 : 4
    00:21:20.445 : 5
    00:24:46.776 : 6
    00:33:42.686 : 7
    00:37:28.953 : 8
    00:44:40.259 : 9
    00:54:40.275 : 10
    01:00:14.400 : 11
    01:06:30.150 : 12
    01:12:29.342 : 13
    01:18:50.431 : 14
    01:25:52.686 : 15
    01:34:57.814 : 16
    Menu #2
    ID : 7
    Codec ID : text
    Duration : 1h 40mn
    Language : English
    Encoded date : UTC 2016-10-05 13:03:38
    Tagged date : UTC 2016-10-05 13:03:38
    00:00:00.000 : 1
    00:05:01.801 : 2
    00:09:38.661 : 3
    00:18:20.849 : 4
    00:21:20.445 : 5
    00:24:46.776 : 6
    00:33:42.686 : 7
    00:37:28.953 : 8
    00:44:40.259 : 9
    00:54:40.275 : 10
    01:00:14.400 : 11
    01:06:30.150 : 12
    01:12:29.342 : 13
    01:18:50.431 : 14
    01:25:52.686 : 15
    01:34:57.814 : 16
    Bit rate mode : VBR

    Скриншоты


    -

    Релиз подготовлен для просмотра на Apple TV, iPad, iPhone, iPod Touch.
    Для просмотра данного релиза на компьютере с ОС Windows рекомендуется использовать VLC media player
    Скачать .torrent

    Скачать торрент-файл бесплатно и на максимальной скорости!

    Как скачивать? · Что такое торрент? · Рейтинг и ограничения

    !ВНИМАНИЕ!
    Сайт не распространяет и не хранит электронные версии произведений, а занимается лишь лишь предоставлением доступа к создаваемому пользователями каталогу ссылок на торрент-файлы, которые содержат только списки хеш-сумм, убедительная просьба с жалобами обращаться напрямую к пользователю. Файлы для обмена на трекере предоставлены пользователями сайта, и администрация не несёт ответственности за их содержание. Просьба не заливать файлы, защищенные авторскими правами, а также файлы нелегального содержания!


    _________________
    [Профиль] [ЛС]
    Показать сообщения:    
    Ответить на тему

    Текущее время: Сегодня, в 07:03

    Часовой пояс: GMT + 2



    Вы не можете начинать темы
    Вы не можете отвечать на сообщения
    Вы не можете редактировать свои сообщения
    Вы не можете удалять свои сообщения
    Вы не можете голосовать в опросах
    Вы не можете прикреплять файлы к сообщениям
    Вы не можете скачивать файлы