BitTorrentTracker PerecTracker.org
BitTorrentTracker PerecTracker.org
    
Регистрация  ·  Вход
 
 · 
Забыли пароль?

  • Наемник Куорри / Quarry (Сезон 1, Серия 1-4 из 8 ) (Грег Яйтанс, Джон Хиллкоут) [2016, Криминальная драма , HDTVRip 1080p ] [MVO] [AlexFilm , NewStudiо ,BaibaK o,Kubik V Kube , English + Subs ENG]

    Ответить на тему
     
    Автор Сообщение

    Враг Нароода

    Создавать темы 05-Окт-2016 16:41

           

    [Цитировать]

    --Наемник Куорри / Quarry Сезон 1, Серия 1-4 из 8 ----Год выпуска: 2016
    Выпущено: США, NightSky Productions, Anonymous Content
    Жанр: Криминальная драма
    Продолжительность: 01:00:00
    Сезон:1
    Серия: 1-4
    Количество серий в сезоне: 8
    Озвучка 1: Профессиональный многоголосый - AlexFilm-Русский
    Озвучка 2: Профессиональный многоголосый - NewStudiо-Русский
    Озвучка 3: Профессиональный многоголосый -BaibaKo-Русский
    Озвучка 4: Профессиональный многоголосый -Kubik V Kube-Русский
    Озвучка 5: Профессиональный многоголосый -Английский -Оригинал
    Субтитры: Английские
    --MDB --Режиссер:Грег Яйтанс, Джон Хиллкоут--В ролях: Рэй Уинстон, Симона Кэссел, Джеймс Флойд, Элоди Юнг, Келси Иган, Джо Ваз-- Дело происходит в 1973 году. Снайпер Куорри возвращается из третьей военной командировки во Вьетнам и обнаруживает, что люди не видят в нём героя, скорее демонизируя образ американского солдата, а старые друзья так и вовсе от него отвернулись. От разочарования он подаётся в разветвлённую сеть наёмных убийц и коррупционеров, действующую на всей протяжённости Миссисипи.----Качество :HDTVRip 1080p
    Формат: MKV
    Видео кодек: H264
    Видео: 4828Кбит/сек,1920х1080(16.9),в 23.976кадр/сек,AVC(High@L4)(CABAC/3 Ref Frames)
    Аудио Кодек:AC3
    Аудио #1:AC3 , 384 Kbps, 48.0 KHz, 6 ch- -AlexFilm-Русский
    Аудио #2:AC3 , 384 Kbps, 48.0 KHz, 6 ch- -NewStudiо-Русский
    Аудио #3: AC3, 384 Kbps, 48.0 KHz, 6 ch - BaibaKo-Русский
    Аудио #4:: AC3, 384 Kbps, 48.0 KHz, 6 ch - Kubik V Kube-Русский
    Аудио #5: AC3, 640 Kbps, 48.0 KHz,6 ch - - English-Английский -Оригинал--

    Доп. информация:

    Звуковая дорожка сделана путем наложения чистого голоса озвучивателей на центральный канал оригинальной дорожки. Качество идентично звуковой дорожке.
    --

    Список эпизодов сезона


    1. Не скучаешь по воде... / Don't Miss Your Water
    2. Захват четыре / Figure Four
    3. Полный рот заноз / Mouthful of Splinters
    4. Редкое воплощение / Seldom Realized
    5.
    6.
    7.
    8.
    --

    MediaInfo сезона

    Общее
    Уникальный идентификатор : 177110901295649972063985734922729847680 (0x853E519EBAC29117AE2B889BC21E7B80)
    Полное имя : C:\МОЙ ДОСУГ\НАЁМНИК КУОРРИ\QUARRY_2016_S01_[AlexFilm_NewStudiо_BaibaKo_Kubik V Kube]_DD5.1_N.B_HDTV_1080_Rus_Eng\QUARRY_2016_S01E01_4xRus_Eng_DD5.1_N.B_HDTV_1080p.mkv
    Формат : Matroska
    Версия формата : Version 4 / Version 2
    Размер файла : 3,71 Гбайт
    Продолжительность : 1 ч. 15 м.
    Общий поток : 7007 Кбит/сек
    Название фильма : QUARRY_2016_S01E01_4xRus_Eng_DD5.1_N.B_HDTV_1080p
    Дата кодирования : UTC 2016-10-04 13:51:01
    Программа кодирования : mkvmerge v9.4.2 ('So High') 64bit
    Библиотека кодирования : libebml v1.3.4 + libmatroska v1.4.5
    Видео
    Идентификатор : 1
    Формат : AVC
    Формат/Информация : Advanced Video Codec
    Профиль формата : High@L4
    Параметр CABAC формата : Да
    Параметр ReFrames формата : 3 кадра
    Идентификатор кодека : V_MPEG4/ISO/AVC
    Продолжительность : 1 ч. 15 м.
    Битрейт : 4828 Кбит/сек
    Ширина : 1920 пикселей
    Высота : 1080 пикселей
    Соотношение сторон : 16:9
    Режим частоты кадров : Постоянный
    Частота кадров : 23,976 (24000/1001) кадра/сек
    Частота кадров в оригинале : 25,000 кадров/сек
    Цветовое пространство : YUV
    Субдискретизация насыщенности : 4:2:0
    Битовая глубина : 8 бит
    Тип развёртки : MBAFF
    Метод сохранения типа развёртки : Чередующиеся поля
    Порядок развёртки : Верхнее поле первое
    Бит/(Пиксели*Кадры) : 0.097
    Размер потока : 2,56 Гбайт (69%)
    Заголовок : QUARRY_2016_S01E01_4xRus_Eng_DD5.1_N.B_HDTV_1080p
    Язык : English
    Default : Да
    Forced : Нет
    Аудио #1
    Идентификатор : 4
    Формат : AC-3
    Формат/Информация : Audio Coding 3
    Расширение режима : CM (complete main)
    Параметр Endianness формата : Big
    Идентификатор кодека : A_AC3
    Продолжительность : 1 ч. 15 м.
    Вид битрейта : Постоянный
    Битрейт : 384 Кбит/сек
    Каналы : 6 каналов
    Расположение каналов : Front: L C R, Side: L R, LFE
    Частота : 48,0 КГц
    Частота кадров : 31,250 кадров/сек (1536 spf)
    Метод сжатия : С потерями
    Размер потока : 208 Мбайт (5%)
    Заголовок : MVO AlexFilm @DD5.1 AC3, 384 Kbps, 48.0 KHz, 6 ch
    Язык : Russian
    Default : Да
    Forced : Нет
    Аудио #2
    Идентификатор : 5
    Формат : AC-3
    Формат/Информация : Audio Coding 3
    Расширение режима : CM (complete main)
    Параметр Endianness формата : Big
    Идентификатор кодека : A_AC3
    Продолжительность : 1 ч. 15 м.
    Вид битрейта : Постоянный
    Битрейт : 384 Кбит/сек
    Каналы : 6 каналов
    Расположение каналов : Front: L C R, Side: L R, LFE
    Частота : 48,0 КГц
    Частота кадров : 31,250 кадров/сек (1536 spf)
    Метод сжатия : С потерями
    Размер потока : 208 Мбайт (5%)
    Заголовок : MVO NewStudio @DD5.1 AC3, 384 Kbps, 48.0 KHz, 6 ch
    Язык : Russian
    Default : Нет
    Forced : Нет
    Аудио #3
    Идентификатор : 6
    Формат : AC-3
    Формат/Информация : Audio Coding 3
    Расширение режима : CM (complete main)
    Параметр Endianness формата : Big
    Идентификатор кодека : A_AC3
    Продолжительность : 1 ч. 15 м.
    Вид битрейта : Постоянный
    Битрейт : 384 Кбит/сек
    Каналы : 6 каналов
    Расположение каналов : Front: L C R, Side: L R, LFE
    Частота : 48,0 КГц
    Частота кадров : 31,250 кадров/сек (1536 spf)
    Метод сжатия : С потерями
    Размер потока : 208 Мбайт (5%)
    Заголовок : MVO BaibaKo @DD5.1 AC3, 384 Kbps, 48.0 KHz, 6 ch
    Язык : Russian
    Default : Нет
    Forced : Нет
    Аудио #4
    Идентификатор : 7
    Формат : AC-3
    Формат/Информация : Audio Coding 3
    Расширение режима : CM (complete main)
    Параметр Endianness формата : Big
    Идентификатор кодека : A_AC3
    Продолжительность : 1 ч. 15 м.
    Вид битрейта : Постоянный
    Битрейт : 384 Кбит/сек
    Каналы : 6 каналов
    Расположение каналов : Front: L C R, Side: L R, LFE
    Частота : 48,0 КГц
    Частота кадров : 31,250 кадров/сек (1536 spf)
    Метод сжатия : С потерями
    Размер потока : 208 Мбайт (5%)
    Заголовок : MVO Kubik V Kube @DD5.1 AC3, 384 Kbps, 48.0 KHz, 6 ch
    Язык : English
    Default : Нет
    Forced : Нет
    Аудио #5
    Идентификатор : 8
    Формат : AC-3
    Формат/Информация : Audio Coding 3
    Расширение режима : CM (complete main)
    Параметр Endianness формата : Big
    Идентификатор кодека : A_AC3
    Продолжительность : 1 ч. 15 м.
    Вид битрейта : Постоянный
    Битрейт : 640 Кбит/сек
    Каналы : 6 каналов
    Расположение каналов : Front: L C R, Side: L R, LFE
    Частота : 48,0 КГц
    Частота кадров : 31,250 кадров/сек (1536 spf)
    Метод сжатия : С потерями
    Размер потока : 347 Мбайт (9%)
    Заголовок : Original@DD5.1 AC3 ,640 Kbps, 48.0 KHz, 6 ch
    Язык : English
    Default : Нет
    Forced : Нет
    Текст #1
    Идентификатор : 2
    Формат : ASS
    Идентификатор кодека : S_TEXT/ASS
    Идентификатор кодека/Информация : Advanced Sub Station Alpha
    Продолжительность : 1 ч. 7 м.
    Битрейт : 1 бит/сек
    Count of elements : 11
    Метод сжатия : Без потерь
    Размер потока : 904 байт (0%)
    Заголовок : Forced
    Язык : Russian
    Default : Да
    Forced : Нет
    Текст #2
    Идентификатор : 3
    Формат : UTF-8
    Идентификатор кодека : S_TEXT/UTF8
    Идентификатор кодека/Информация : UTF-8 Plain Text
    Продолжительность : 1 ч. 14 м.
    Битрейт : 53 бит/сек
    Count of elements : 914
    Размер потока : 29,6 Кбайт (0%)
    Заголовок : Original
    Язык : English
    Default : Нет
    Forced : Нет
    --

    Скриншоты

    ---- Внимание! Раздача ведётся путём добавления новых серий!--

    Внимание! Раздача ведётся путём добавления новых серий!

    Раздача ведётся путём добавления новых серий; при каждом добавлении создётся новый торрент.
    Чтобы начать докачку новой серии, пользователям необходимо сделать следующее:
    1. остановить скачивание,
    2. удалить старый торрент у себя из клиента (старые серии удалять не надо),
    3. скачать новый торрент и запустить его у себя в клиенте вместо старого, при этом указать клиенту путь в старую папку, куда и должно происходить скачивание новых серий.
    Ваш клиент при этом должен произвести хеширование (проверку) старой папки (если не производит сам - помогите ему сделать это), и будет докачивать только те серии которых у вас ещё нет. Старые серии при этом не удаляются, а продолжают раздаваться!
    Eсли вы уже удалили старые серии, то предотвратить повторную закачку старых серий можно, отжав галочку в соответсвующих местах при запуске нового торрента. По возможности, желательно не удалять старые серии как можно дольше, чтобы релизёр не столько продолжал раздавать старые серии, а смог сконцентрироваться на новых.
    Совет для тех, кто не хочет ждать перехеширования:
    Создайте ещё одну папку рядом с папкой сериала (рядом, а не в ней!!!). Каждую новую серию после удачной загрузки копируйте в новую папку так чтобы ваша основная папка всегда была пуста. Когда ваш новый торрент предложит вам закачать все файлы, выберете только последнюю. Для сидирования же укажите адрес новой папки.
    Как закачать отдельный файл из торрента или докачать ранее пропущенные файлы торрента!

    Как закачать отдельный файл

    1. Открыть торрент
    2. Снять галки с тех файлов торрента, которые мы не хотим закачивать. Оставляем только на нужных нам файлах (файле).
    3. Нажать О.К.
    В клиенте utorrent
    Инструкция
    1) Открыть торрент

    2) Снять галки с тех файлов торрента, которые мы не хотим закачивать:
    * либо вручную, снимая с каждого файла галку( скрин №1)
    * либо, нажав кнопку "Снять метки (Select None)", сняв сразу со всех файлов(скрин №2)
    №1

    №2

    Оставляем только на нужных нам файлах (файле).

    3)Нажать О.К
    --------Релиз от: Nikolai.Baranov & PIRATIYA --------
    Скачать .torrent

    Скачать торрент-файл бесплатно и на максимальной скорости!

    Как скачивать? · Что такое торрент? · Рейтинг и ограничения

    !ВНИМАНИЕ!
    Сайт не распространяет и не хранит электронные версии произведений, а занимается лишь лишь предоставлением доступа к создаваемому пользователями каталогу ссылок на торрент-файлы, которые содержат только списки хеш-сумм, убедительная просьба с жалобами обращаться напрямую к пользователю. Файлы для обмена на трекере предоставлены пользователями сайта, и администрация не несёт ответственности за их содержание. Просьба не заливать файлы, защищенные авторскими правами, а также файлы нелегального содержания!


    _________________

    Легко быть оптимистом, когда судьба не валит с ног тяжелыми ударами, а лишь иногда легонько шлепает по заднице.
    [Профиль] [ЛС]

    -746

    Создавать темы 11-Окт-2016 14:29 (спустя 5 дней)

           

    Топік був перенесений з форуму Зарубежные сериалы у форум Зарубежные сериалы (HD Video)

    rechyn

    _________________
    Как бы ты высоко не летал, не забывай, с кем ты ползал..
     
    Показать сообщения:    
    Ответить на тему

    Текущее время: Сегодня, в 16:35

    Часовой пояс: GMT + 2



    Вы не можете начинать темы
    Вы не можете отвечать на сообщения
    Вы не можете редактировать свои сообщения
    Вы не можете удалять свои сообщения
    Вы не можете голосовать в опросах
    Вы не можете прикреплять файлы к сообщениям
    Вы не можете скачивать файлы