BitTorrentTracker PerecTracker.org
BitTorrentTracker PerecTracker.org
    
Регистрация  ·  Вход
 
 · 
Забыли пароль?

  • Кит Киттредж: Загадка американской девочки / Kit Kittredge: An American Girl (Патриция Розема / Patricia Rozema) [2008, США, Канада, драма, семейный, HDTV 1080i] MVO (Пифагор) + 2x Sub (Rus, Eng) + Original Eng

    Ответить на тему
     
    Автор Сообщение

    Light

    Создавать темы 05-Окт-2016 00:55

           

    [Цитировать]

    Кит Киттредж: Загадка американской девочкиKit Kittredge: An American Girl
    Страна: США, Канада
    Жанр: драма, семейный
    Год выпуска: 2008
    Продолжительность: 01:36:09
    -
    Перевод 1: Профессиональный (многоголосый закадровый) Пифагор | DVD
    Перевод 2: Профессиональный (многоголосый закадровый) Пифагор | HDTV *
    Cубтитры: русские, английские
    Оригинальная аудиодорожка: английский
    -
    Режиссер: Патриция Розема / Patricia Rozema
    В ролях: Эбигейл Бреслин, Джулия Ормонд, Крис О’Доннелл, Джейн Краковски, Уоллес Шоун, Макс Тириот, Уиллоу Смит, Гленн Хедли, Зак Миллс, Кеннет Уэлш
    -
    Описание: В Америке наступили тяжелые времена Великой депрессии. По городам бродят толпы бродяг и воров, совершающих дерзкие кражи у местных жителей.
    Благополучная семья из Цинциннати, где живет девочка Кит Киттредж (Эбигейл Бреслин), тоже испытывает финансовые трудности. Великая депрессия не обошла их дом стороной и отец семейства вынужден отправиться на заработки в Чикаго. Сама Кит и ее мать поселяют у себя в доме квартирантов, которые платят деньги за съем жилья. Кит знакомится с бродягами Уиллом и Каунти и принимает их за своих новых друзей. Она считает, что бродяги - это самые обыкновенные люди, потерявшие не только работу, но и жилье. Однажды в их доме происходит кража - была украдена шкатулка матери Кит, где сберегались все их деньги. Подозрение падает на Уилла. Но Кит не хочет верить, что это дело рук Уилла... Но если не Уилл, тогда кто виновен в краже?

    >>> Собственная запись со спутника Eutelsat 36A/36B (36°E) | TV1000 Comedy HD (эфир 01.10.2016г.)
    Тип релиза: HDTV 1080i
    Контейнер: MKV
    Видео: MPEG-4 AVC / PAL 16:9 / 1920x1080 (1,78:1) / 9295 kbps / 25,000 fps / 0.090 bit/pixel / High@L4
    Аудио 1: Russian / Dolby Digital Audio / 5.1 Ch / 48 kHz / 384 kbps / 16 bit | MVO | DVD | Пифагор
    Аудио 2: Russian / Dolby Digital Audio / 2.0 Ch / 48 kHz / 192 kbps / 16 bit | MVO | HDTV | Пифагор *
    Аудио 3: English / Dolby Digital Audio / 5.1 Ch / 48 kHz / 384 kbps / 16 bit | Original | DVD
    Формат субтитров: softsub (SRT)
    Навигация по главам: есть

    * Примечание

    К сожалению, оригинальной английской дорожки в эфире не было, кроме как MP2 и AC3 (обе стерео) от студии Пифагор, поэтому вся синхронизация остальных дорожек и субтитров производилась исключительно по стереодорожке  AC3 студии Пифагор. Озвучка и перевод обоих русских дорожек (Пифагор) одинаковая.
    Исходник DVD

    MediaInfo

    Общее
    Уникальный идентификатор                 : 219213859888948723393844726785218030055 (0xA4EB0DBF2F0E30339C3F286C8791A9E7)
    Полное имя                               : N:\HDTV\Kit Kittredge_An American Girl 2008 1080i HDTV MPEG4\Kit Kittredge_An American Girl.2008.HDTV.1080i.mkv
    Формат                                   : Matroska
    Версия формата                           : Version 4 / Version 2
    Размер файла                             : 6,89 Гбайт
    Продолжительность                        : 1 ч. 36 м.
    Общий поток                              : 10,3 Мбит/сек
    Название фильма                          : Release for RuTracker © flaSI-I
    Дата кодирования                         : UTC 2016-10-01 19:59:20
    Программа кодирования                    : mkvmerge v9.4.2 ('So High') 64bit
    Библиотека кодирования                   : libebml v1.3.4 + libmatroska v1.4.5
    Видео
    Идентификатор                            : 1
    Формат                                   : AVC
    Формат/Информация                        : Advanced Video Codec
    Профиль формата                          : High@L4
    Параметр CABAC формата                   : Да
    Параметр ReFrames формата                : 4 кадра
    Идентификатор кодека                     : V_MPEG4/ISO/AVC
    Продолжительность                        : 1 ч. 36 м.
    Битрейт                                  : 9294 Кбит/сек
    Ширина                                   : 1920 пикселей
    Высота                                   : 1080 пикселей
    Соотношение сторон                       : 16:9
    Режим частоты кадров                     : Переменный
    Частота кадров                           : 50,000 кадров/сек
    Частота кадров в оригинале               : 25,000 кадров/сек
    Стандарт вещания                         : Component
    Цветовое пространство                    : YUV
    Субдискретизация насыщенности            : 4:2:0
    Битовая глубина                          : 8 бит
    Тип развёртки                            : Чересстрочная
    Метод сохранения типа развёртки          : Раздельные поля
    Порядок развёртки                        : Верхнее поле первое
    Бит/(Пиксели*Кадры)                      : 0.090
    Размер потока                            : 6,24 Гбайт (91%)
    Язык                                     : English
    Default                                  : Да
    Forced                                   : Нет
    Цветовой диапазон                        : Limited
    Основные цвета                           : BT.709
    Характеристики трансфера                 : BT.709
    Коэффициенты матрицы                     : BT.709
    Аудио #1
    Идентификатор                            : 2
    Формат                                   : AC-3
    Формат/Информация                        : Audio Coding 3
    Расширение режима                        : CM (complete main)
    Параметр Endianness формата              : Big
    Идентификатор кодека                     : A_AC3
    Продолжительность                        : 1 ч. 36 м.
    Вид битрейта                             : Постоянный
    Битрейт                                  : 384 Кбит/сек
    Каналы                                   : 6 каналов
    Расположение каналов                     : Front: L C R, Side: L R, LFE
    Частота                                  : 48,0 КГц
    Частота кадров                           : 31,250 кадров/сек (1536 spf)
    Метод сжатия                             : С потерями
    Размер потока                            : 264 Мбайт (4%)
    Заголовок                                : MVO | Пифагор | DVD
    Язык                                     : Russian
    Default                                  : Да
    Forced                                   : Нет
    Аудио #2
    Идентификатор                            : 3
    Формат                                   : AC-3
    Формат/Информация                        : Audio Coding 3
    Расширение режима                        : CM (complete main)
    Параметр Endianness формата              : Big
    Идентификатор кодека                     : A_AC3
    Продолжительность                        : 1 ч. 36 м.
    Вид битрейта                             : Постоянный
    Битрейт                                  : 192 Кбит/сек
    Каналы                                   : 2 канала
    Расположение каналов                     : Front: L R
    Частота                                  : 48,0 КГц
    Частота кадров                           : 31,250 кадров/сек (1536 spf)
    Метод сжатия                             : С потерями
    Размер потока                            : 132 Мбайт (2%)
    Заголовок                                : MVO | Пифагор | HDTV
    Язык                                     : Russian
    Default                                  : Нет
    Forced                                   : Нет
    Аудио #3
    Идентификатор                            : 4
    Формат                                   : AC-3
    Формат/Информация                        : Audio Coding 3
    Расширение режима                        : CM (complete main)
    Параметр Endianness формата              : Big
    Идентификатор кодека                     : A_AC3
    Продолжительность                        : 1 ч. 36 м.
    Вид битрейта                             : Постоянный
    Битрейт                                  : 384 Кбит/сек
    Каналы                                   : 6 каналов
    Расположение каналов                     : Front: L C R, Side: L R, LFE
    Частота                                  : 48,0 КГц
    Частота кадров                           : 31,250 кадров/сек (1536 spf)
    Метод сжатия                             : С потерями
    Размер потока                            : 264 Мбайт (4%)
    Заголовок                                : Original | DVD
    Язык                                     : English
    Default                                  : Нет
    Forced                                   : Нет
    Текст #1
    Идентификатор                            : 5
    Формат                                   : UTF-8
    Идентификатор кодека                     : S_TEXT/UTF8
    Идентификатор кодека/Информация          : UTF-8 Plain Text
    Продолжительность                        : 1 ч. 31 м.
    Битрейт                                  : 110 бит/сек
    Count of elements                        : 1414
    Размер потока                            : 73,9 Кбайт (0%)
    Заголовок                                : FULL | DVD
    Язык                                     : Russian
    Default                                  : Нет
    Forced                                   : Нет
    Текст #2
    Идентификатор                            : 6
    Формат                                   : UTF-8
    Идентификатор кодека                     : S_TEXT/UTF8
    Идентификатор кодека/Информация          : UTF-8 Plain Text
    Продолжительность                        : 1 ч. 31 м.
    Битрейт                                  : 79 бит/сек
    Count of elements                        : 1583
    Размер потока                            : 53,2 Кбайт (0%)
    Заголовок                                : Original | SDH | DVD
    Язык                                     : English
    Default                                  : Нет
    Forced                                   : Нет
    Меню
    00:00:00.000                             : en:Chapter 1
    00:04:01.440                             : en:Chapter 2
    00:07:50.960                             : en:Chapter 3
    00:11:04.360                             : en:Chapter 4
    00:16:00.000                             : en:Chapter 5
    00:19:48.920                             : en:Chapter 6
    00:24:05.280                             : en:Chapter 7
    00:27:49.840                             : en:Chapter 8
    00:30:35.160                             : en:Chapter 9
    00:33:39.200                             : en:Chapter 10
    00:39:01.320                             : en:Chapter 11
    00:41:47.000                             : en:Chapter 12
    00:43:33.560                             : en:Chapter 13
    00:47:32.800                             : en:Chapter 14
    00:50:21.520                             : en:Chapter 15
    00:52:19.760                             : en:Chapter 16
    00:56:46.880                             : en:Chapter 17
    01:01:20.880                             : en:Chapter 18
    01:03:56.240                             : en:Chapter 19
    01:07:15.000                             : en:Chapter 20
    01:11:30.600                             : en:Chapter 21
    01:14:32.400                             : en:Chapter 22
    01:17:18.280                             : en:Chapter 23
    01:23:01.400                             : en:Chapter 24
    01:24:24.600                             : en:Chapter 25
    01:26:26.760                             : en:Chapter 26
    01:29:38.520                             : en:Chapter 27
    01:31:51.640                             : en:Chapter 28
    01:36:12.320                             : en:Chapter 29

    Скриншоты

    -

    Скачать .torrent

    Скачать торрент-файл бесплатно и на максимальной скорости!

    Как скачивать? · Что такое торрент? · Рейтинг и ограничения

    !ВНИМАНИЕ!
    Сайт не распространяет и не хранит электронные версии произведений, а занимается лишь лишь предоставлением доступа к создаваемому пользователями каталогу ссылок на торрент-файлы, которые содержат только списки хеш-сумм, убедительная просьба с жалобами обращаться напрямую к пользователю. Файлы для обмена на трекере предоставлены пользователями сайта, и администрация не несёт ответственности за их содержание. Просьба не заливать файлы, защищенные авторскими правами, а также файлы нелегального содержания!


    _________________
    [Профиль] [ЛС]
    Показать сообщения:    
    Ответить на тему

    Текущее время: Сегодня, в 06:22

    Часовой пояс: GMT + 2



    Вы не можете начинать темы
    Вы не можете отвечать на сообщения
    Вы не можете редактировать свои сообщения
    Вы не можете удалять свои сообщения
    Вы не можете голосовать в опросах
    Вы не можете прикреплять файлы к сообщениям
    Вы не можете скачивать файлы