BitTorrentTracker PerecTracker.org
BitTorrentTracker PerecTracker.org
    
Регистрация  ·  Вход
 
 · 
Забыли пароль?

  • Кровный отец / Blood Father (Жан-Франсуа Рише / Jean-François Richet) [2016, Франция, триллер, криминал, боевик, BDRip 1080p] MVO (Paradox & Omskbird records) + Sub Eng + Original Eng

    Ответить на тему
     
    Автор Сообщение

    Light

    Создавать темы 05-Окт-2016 00:55

           

    [Цитировать]

    Кровный отец / Blood Father«A Father Makes His Own Justice»
    Страна: Франция
    Жанр: триллер, криминал, боевик
    Год выпуска: 2016
    Продолжительность: 01:28:12
    -
    Перевод: Любительский (многоголосый закадровый) Paradox & Omskbird records
    Cубтитры: английские
    Оригинальная аудиодорожка: английский
    -
    Режиссер: Жан-Франсуа Рише / Jean-François Richet
    В ролях: Мэл Гибсон, Эрин Мориарти, Диего Луна, Майкл Паркс, Уильям Х. Мэйси, Мигель Сандовал, Дейл Дикки, Ричард Кебрал, Дэниэл Монкада, Райан Дорси
    -
    Описание: 17-летняя девушка попадает в серьёзные неприятности, и теперь за ней охотятся убийцы наркокартеля. Из близких у неё только отец - завязавший алкоголик и бывший заключённый, который даже особо не видел свою дочь и не принимал участия в её воспитании. Но родственников не выбирают, и девушке приходится обратиться к нему за помощью.

    Тип релиза: BDRip 1080p HDChina
    Контейнер: MKV
    Видео: MPEG-4 AVC / NTSC 16:9 / 1920x804 (2,40:1) / 13196 kbps / 23,976 fps / 0.357 bit/pixel / High@L4.1
    Аудио 1: Russian / Digital Theater Systems / 5.1 Ch / 48 kHz / 1509 kbps / 24 bit | MVO | Paradox & Omskbird records
    Аудио 2: English / Digital Theater Systems / 5.1 Ch / 48 kHz / 1509 kbps / 24 bit | Original
    Формат субтитров: softsub (SRT)
    Навигация по главам: есть

    x264 iNFO

    x264 [info]: frame I:1008  Avg QP:16.12  size:209575
    x264 [info]: frame P:31230 Avg QP:17.49  size:104445
    x264 [info]: frame B:94661 Avg QP:18.79  size: 55536
    x264 [info]: consecutive B-frames:  3.2%  7.5% 10.5% 17.8% 20.3% 31.2%  5.4%  1.7%  2.6%

    Source vs. Encode

    Source----------vs.----------Encode


    MediaInfo

    Общее
    Уникальный идентификатор                 : 243228902363302623022928378407477804205 (0xB6FC2EC181F539718B96CA5DBAD37CAD)
    Полное имя                               : N:\BDRip 1080p\Blood Father.2016.BDRip.1080p.mkv
    Формат                                   : Matroska
    Версия формата                           : Version 4 / Version 2
    Размер файла                             : 9,99 Гбайт
    Продолжительность                        : 1 ч. 28 м.
    Общий поток                              : 16,2 Мбит/сек
    Название фильма                          : Release for RuTracker © flaSI-I
    Дата кодирования                         : UTC 2016-10-03 21:16:48
    Программа кодирования                    : mkvmerge v9.4.2 ('So High') 64bit
    Библиотека кодирования                   : libebml v1.3.4 + libmatroska v1.4.5
    Видео
    Идентификатор                            : 1
    Формат                                   : AVC
    Формат/Информация                        : Advanced Video Codec
    Профиль формата                          : High@L4.1
    Параметр CABAC формата                   : Да
    Параметр ReFrames формата                : 4 кадра
    Идентификатор кодека                     : V_MPEG4/ISO/AVC
    Продолжительность                        : 1 ч. 28 м.
    Битрейт                                  : 13,2 Мбит/сек
    Ширина                                   : 1920 пикселей
    Высота                                   : 804 пикселя
    Соотношение сторон                       : 2,40:1
    Режим частоты кадров                     : Постоянный
    Частота кадров                           : 23,976 (24000/1001) кадра/сек
    Цветовое пространство                    : YUV
    Субдискретизация насыщенности            : 4:2:0
    Битовая глубина                          : 8 бит
    Тип развёртки                            : Прогрессивная
    Бит/(Пиксели*Кадры)                      : 0.357
    Размер потока                            : 8,13 Гбайт (81%)
    Библиотека кодирования                   : x264 core 148 r2705 3f5ed56
    Настройки программы                      : cabac=1 / ref=5 / deblock=1:-3:-3 / analyse=0x3:0x133 / me=umh / subme=11 / psy=1 / psy_rd=1.00:0.00 / mixed_ref=1 / me_range=64 / chroma_me=1 / trellis=2 / 8x8dct=1 / cqm=0 / deadzone=21,11 / fast_pskip=0 / chroma_qp_offset=-2 / threads=12 / lookahead_threads=2 / sliced_threads=0 / nr=0 / decimate=0 / interlaced=0 / bluray_compat=0 / constrained_intra=0 / bframes=8 / b_pyramid=1 / b_adapt=2 / b_bias=0 / direct=3 / weightb=1 / open_gop=0 / weightp=2 / keyint=240 / keyint_min=2 / scenecut=40 / intra_refresh=0 / rc=2pass / mbtree=0 / bitrate=13200 / ratetol=1.0 / qcomp=0.70 / qpmin=0 / qpmax=69 / qpstep=4 / cplxblur=20.0 / qblur=0.5 / ip_ratio=1.20 / pb_ratio=1.20 / aq=3:0.80
    Язык                                     : English
    Default                                  : Да
    Forced                                   : Нет
    Аудио #1
    Идентификатор                            : 2
    Формат                                   : DTS
    Формат/Информация                        : Digital Theater Systems
    Режим                                    : 16
    Параметр Endianness формата              : Big
    Идентификатор кодека                     : A_DTS
    Продолжительность                        : 1 ч. 28 м.
    Вид битрейта                             : Постоянный
    Битрейт                                  : 1509 Кбит/сек
    Каналы                                   : 6 каналов
    Расположение каналов                     : Front: L C R, Side: L R, LFE
    Частота                                  : 48,0 КГц
    Частота кадров                           : 93,750 кадра/сек (512 spf)
    Битовая глубина                          : 24 бит
    Метод сжатия                             : С потерями
    Размер потока                            : 952 Мбайт (9%)
    Заголовок                                : MVO | Paradox & Omskbird records
    Язык                                     : Russian
    Default                                  : Да
    Forced                                   : Нет
    Аудио #2
    Идентификатор                            : 3
    Формат                                   : DTS
    Формат/Информация                        : Digital Theater Systems
    Режим                                    : 16
    Параметр Endianness формата              : Big
    Идентификатор кодека                     : A_DTS
    Продолжительность                        : 1 ч. 28 м.
    Вид битрейта                             : Постоянный
    Битрейт                                  : 1509 Кбит/сек
    Каналы                                   : 6 каналов
    Расположение каналов                     : Front: L C R, Side: L R, LFE
    Частота                                  : 48,0 КГц
    Частота кадров                           : 93,750 кадра/сек (512 spf)
    Битовая глубина                          : 24 бит
    Метод сжатия                             : С потерями
    Размер потока                            : 952 Мбайт (9%)
    Заголовок                                : Original
    Язык                                     : English
    Default                                  : Нет
    Forced                                   : Нет
    Текст
    Идентификатор                            : 4
    Формат                                   : UTF-8
    Идентификатор кодека                     : S_TEXT/UTF8
    Идентификатор кодека/Информация          : UTF-8 Plain Text
    Продолжительность                        : 1 ч. 20 м.
    Битрейт                                  : 69 бит/сек
    Count of elements                        : 1105
    Размер потока                            : 41,2 Кбайт (0%)
    Заголовок                                : Original
    Язык                                     : English
    Default                                  : Нет
    Forced                                   : Нет
    Меню
    00:00:00.000                             : en:1
    00:01:08.000                             : en:2
    00:10:19.000                             : en:3
    00:19:57.000                             : en:4
    00:28:58.000                             : en:5
    00:38:44.000                             : en:6
    00:48:47.000                             : en:7
    00:57:47.000                             : en:8
    01:07:52.000                             : en:9
    01:14:47.000                             : en:10
    01:22:13.000                             : en:11

    Скриншоты

    -

    Скачать .torrent

    Скачать торрент-файл бесплатно и на максимальной скорости!

    Как скачивать? · Что такое торрент? · Рейтинг и ограничения

    !ВНИМАНИЕ!
    Сайт не распространяет и не хранит электронные версии произведений, а занимается лишь лишь предоставлением доступа к создаваемому пользователями каталогу ссылок на торрент-файлы, которые содержат только списки хеш-сумм, убедительная просьба с жалобами обращаться напрямую к пользователю. Файлы для обмена на трекере предоставлены пользователями сайта, и администрация не несёт ответственности за их содержание. Просьба не заливать файлы, защищенные авторскими правами, а также файлы нелегального содержания!


    _________________
    [Профиль] [ЛС]
    Показать сообщения:    
    Ответить на тему

    Текущее время: Сегодня, в 21:26

    Часовой пояс: GMT + 2



    Вы не можете начинать темы
    Вы не можете отвечать на сообщения
    Вы не можете редактировать свои сообщения
    Вы не можете удалять свои сообщения
    Вы не можете голосовать в опросах
    Вы не можете прикреплять файлы к сообщениям
    Вы не можете скачивать файлы