BitTorrentTracker PerecTracker.org
BitTorrentTracker PerecTracker.org
    
Регистрация  ·  Вход
 
 · 
Забыли пароль?

  • После Валькирии: Рассвет четвертого Рейха / Beyond Valkyrie: Dawn of the 4th Reich (Клаудио Фах / Claudio Fah) [2016, США, боевик, военный, история, WEB-DLRip] MVO (iTunes)

    Ответить на тему
     
    Автор Сообщение

    rechyn

    Создавать темы 04-Окт-2016 16:25

           

    [Цитировать]

    После Валькирии: Рассвет четвертого Рейха / Beyond Valkyrie: Dawn of the 4th Reich
    Страна: США
    Жанр: боевик, военный, история
    Год выпуска: 2016
    Продолжительность: 01:40:34
    Перевод: Профессиональный (многоголосый закадровый) iTunes
    Cубтитры: нет
    Режиссер: Клаудио Фах / Claudio Fah
    В ролях: Шон Патрик Флэнери, Том Сайзмор, Кип Парду, Стивен Лэнг, Рутгер Хауэр, Эрик Ладин, Йоханнес Херршманн, Павел Личникофф, Юли Энгельбрехт
    Описание: Цель операции "Валькирия" - убийство Адольфа Гитлера; союзная боевая группа готовит вывоз человека, назначенного править послевоенной Германией. Но все меняется после провала операции "Валькирия". Теперь неожиданным союзникам придется работать вместе, чтобы воспрепятсвовать отьезду группы нацистких офицеров в Аргентину с целью организации Четвертого Рейха.
    Сэмпл: http://multi-up.com/1121012
    Качество видео: WEB-DLRip
    Формат видео: AVI
    Видео: 720x384 (1.88:1), 23.976 fps, XviD build 50 ~1553 kbps avg, 0.23 bit/pixel
    Аудио: 48 kHz, AC3 Dolby Digital, 3/2 (L,C,R,l,r) + LFE ch, ~384 kbps

    MediaInfo

    General
    Complete name : E:\Zona Downloads\OperciYa.ValkiRiYa.2O16.P.WEB-DLRip.14OOMB.avi
    Format : AVI
    Format/Info : Audio Video Interleave
    File size : 1.37 GiB
    Duration : 1h 40mn
    Overall bit rate : 1 947 Kbps
    Writing application : VirtualDubMod 1.5.10.2 (build 2540/release)
    Writing library : VirtualDubMod build 2540/release
    Video
    ID : 0
    Format : MPEG-4 Visual
    Format profile : Advanced Simple@L5
    Format settings, BVOP : 2
    Format settings, QPel : No
    Format settings, GMC : No warppoints
    Format settings, Matrix : Default (MPEG)
    Codec ID : XVID
    Codec ID/Hint : XviD
    Duration : 1h 40mn
    Bit rate : 1 553 Kbps
    Width : 720 pixels
    Height : 384 pixels
    Display aspect ratio : 1.85:1
    Frame rate : 23.976 fps
    Color space : YUV
    Chroma subsampling : 4:2:0
    Bit depth : 8 bits
    Scan type : Progressive
    Compression mode : Lossy
    Bits/(Pixel*Frame) : 0.234
    Stream size : 1.09 GiB (80%)
    Writing library : XviD 1.2.1 (UTC 2008-12-04)
    Audio
    ID : 1
    Format : AC-3
    Format/Info : Audio Coding 3
    Mode extension : CM (complete main)
    Format settings, Endianness : Big
    Codec ID : 2000
    Duration : 1h 40mn
    Bit rate mode : Constant
    Bit rate : 384 Kbps
    Channel(s) : 6 channels
    Channel positions : Front: L C R, Side: L R, LFE
    Sampling rate : 48.0 KHz
    Bit depth : 16 bits
    Compression mode : Lossy
    Stream size : 276 MiB (20%)
    Alignment : Split accross interleaves
    Interleave, duration : 42 ms (1.00 video frame)
    Interleave, preload duration : 500 ms

    Скриншот c названием фильма

    Скриншоты

    Скачать .torrent

    Скачать торрент-файл бесплатно и на максимальной скорости!

    Как скачивать? · Что такое торрент? · Рейтинг и ограничения

    !ВНИМАНИЕ!
    Сайт не распространяет и не хранит электронные версии произведений, а занимается лишь лишь предоставлением доступа к создаваемому пользователями каталогу ссылок на торрент-файлы, которые содержат только списки хеш-сумм, убедительная просьба с жалобами обращаться напрямую к пользователю. Файлы для обмена на трекере предоставлены пользователями сайта, и администрация не несёт ответственности за их содержание. Просьба не заливать файлы, защищенные авторскими правами, а также файлы нелегального содержания!


    _________________
    [Профиль] [ЛС]
    Показать сообщения:    
    Ответить на тему

    Текущее время: Сегодня, в 03:23

    Часовой пояс: GMT + 2



    Вы не можете начинать темы
    Вы не можете отвечать на сообщения
    Вы не можете редактировать свои сообщения
    Вы не можете удалять свои сообщения
    Вы не можете голосовать в опросах
    Вы не можете прикреплять файлы к сообщениям
    Вы не можете скачивать файлы